<?xml version="1.0" standalone="no"?>
<!DOCTYPE svg PUBLIC "-//W3C//DTD SVG 1.1//EN" "http://www.w3.org/Graphics/SVG/1.1/DTD/svg11.dtd" >
<svg xmlns="http://www.w3.org/2000/svg">
<metadata></metadata>
<defs>
<font id="san_francisco_displaythin" horiz-adv-x="1048" >
<font-face units-per-em="2048" ascent="1638" descent="-410" />
<missing-glyph horiz-adv-x="422" />
<glyph horiz-adv-x="0" />
<glyph unicode="&#xd;" horiz-adv-x="0" />
<glyph unicode=" "  horiz-adv-x="422" />
<glyph unicode="&#x09;" horiz-adv-x="422" />
<glyph unicode="&#xa0;" horiz-adv-x="422" />
<glyph unicode="!" horiz-adv-x="487" d="M166 62q0 32 22.5 55t54.5 23t55 -23t23 -55t-23 -54.5t-55 -22.5t-54.5 22.5t-22.5 54.5zM199 1360h87l-8 -987h-70z" />
<glyph unicode="&#x22;" horiz-adv-x="608" d="M142 1360h90l-15 -411h-59zM377 1360h90l-16 -411h-59z" />
<glyph unicode="#" horiz-adv-x="1195" d="M72 419l14 70h236l78 392h-222l13 70h224l84 413h73l-86 -413h354l85 413h72l-85 -413h247l-14 -70h-248l-78 -392h234l-14 -70h-235l-87 -419h-71l86 419h-354l-86 -419h-72l86 419h-234zM394 489h353l79 392h-354z" />
<glyph unicode="$" horiz-adv-x="1092" d="M84 346h83q3 -111 95.5 -192.5t256.5 -89.5v606l-89 24q-145 40 -227.5 125.5t-82.5 213.5q0 149 108 240.5t291 99.5v133h73v-134q176 -10 280.5 -100.5t106.5 -221.5h-81q-2 93 -81 166t-225 83v-567l49 -12q184 -47 271.5 -133.5t87.5 -226.5q0 -165 -112.5 -260.5 t-295.5 -107.5v-135h-73v133q-106 3 -191.5 36t-137 84t-79 111.5t-27.5 124.5zM203 1035q0 -192 257 -267q44 -11 59 -17v548q-145 -7 -230.5 -76.5t-85.5 -187.5zM592 64q151 11 238 87t87 204q0 114 -73 180.5t-235 111.5q-2 1 -8.5 3t-8.5 2v-588z" />
<glyph unicode="%" horiz-adv-x="1458" d="M88 1037v36q0 141 70 227.5t172 86.5q101 0 170.5 -86t69.5 -228v-37q0 -142 -69.5 -228t-171.5 -86t-171.5 86.5t-69.5 228.5zM157 1040q0 -116 49.5 -184.5t123.5 -68.5q73 0 122 68t49 184v31q0 115 -49 183.5t-122 68.5q-74 0 -123.5 -68.5t-49.5 -182.5v-31zM170 0 l514 680l514 680h82l-514 -680l-513 -680h-83zM888 305v37q0 140 70 226.5t172 86.5q101 0 170.5 -86t69.5 -228v-37q0 -141 -69.5 -227.5t-171.5 -86.5t-171.5 86.5t-69.5 228.5zM957 308q0 -116 49.5 -184.5t123.5 -68.5q73 0 122 68.5t49 184.5v31q0 114 -49 182.5 t-122 68.5q-74 0 -123.5 -68.5t-49.5 -182.5v-31z" />
<glyph unicode="&#x26;" horiz-adv-x="1268" d="M80 342q0 225 278 367q2 1 38 19.5t38 19.5q-105 107 -151.5 181.5t-46.5 158.5q0 128 94 206t228 78q140 0 227 -83.5t87 -204.5q0 -106 -76.5 -189.5t-238.5 -164.5l410 -439q41 63 68.5 171.5t31.5 225.5q1 19 1 68h78q0 -52 -1 -72q-4 -132 -36.5 -252t-85.5 -196 l223 -236h-111l-162 174q-91 -99 -214.5 -150t-246.5 -51q-117 0 -213.5 41.5t-157.5 127t-61 200.5zM164 343q0 -128 99.5 -211.5t249.5 -83.5q111 0 222 47t185 133l-434 467q-12 -8 -84 -44q-238 -125 -238 -308zM319 1084q0 -71 42 -134.5t145 -168.5q154 75 218.5 145 t64.5 155q0 94 -64 156t-168 62q-102 0 -170 -60t-68 -155z" />
<glyph unicode="'" horiz-adv-x="361" d="M136 1360h89l-15 -411h-59z" />
<glyph unicode="(" horiz-adv-x="570" d="M154 566q0 125 18 239t43 193t63 155.5t66 118.5t65 90h66q-27 -35 -54.5 -78t-62.5 -118.5t-61 -158.5t-44 -200t-18 -241t18 -242t42 -200t61.5 -166.5t61.5 -127t56 -93.5h-71q-31 40 -60.5 88.5t-65 127.5t-61.5 165.5t-44 204.5t-18 243z" />
<glyph unicode=")" horiz-adv-x="569" d="M95 1362h65q37 -48 64.5 -90t66 -118.5t63.5 -155.5t43 -193t18 -239q0 -154 -25.5 -294.5t-67 -244t-79 -171t-77.5 -119.5h-70q32 52 55.5 93.5t61 126.5t61 167t42 200t18.5 242q0 153 -25.5 291.5t-67 237.5t-76 160t-70.5 107z" />
<glyph unicode="*" horiz-adv-x="941" d="M152 884l266 138l-266 152l33 60l258 -168l-7 311h69l-7 -310l257 167l34 -60l-267 -152l267 -138l-34 -60l-257 152l7 -296h-69l7 296l-258 -152z" />
<glyph unicode="+" d="M66 516v72h422v450h72v-450h423v-72h-423v-467h-72v467h-422z" />
<glyph unicode="," horiz-adv-x="350" d="M61 -292l88 400h94l-116 -400h-66z" />
<glyph unicode="-" horiz-adv-x="762" d="M66 525v73h630v-73h-630z" />
<glyph unicode="." horiz-adv-x="429" d="M137 62q0 32 23 55t55 23t55 -23t23 -55t-23 -54.5t-55 -22.5t-55 22.5t-23 54.5z" />
<glyph unicode="/" horiz-adv-x="631" d="M30 -315l494 1750h77l-496 -1750h-75z" />
<glyph unicode="0" horiz-adv-x="1097" d="M106 633v93q0 317 119.5 491t323.5 174t323 -174t119 -491v-93q0 -317 -119 -490.5t-323 -173.5t-323.5 173.5t-119.5 490.5zM189 631q0 -282 98 -435.5t262 -153.5q163 0 261 153.5t98 435.5v98q0 281 -98 434.5t-261 153.5q-164 0 -262 -153t-98 -435v-98z" />
<glyph unicode="1" horiz-adv-x="759" d="M100 1052v85q21 15 173.5 114t170.5 109h78v-1360h-81v1270h-4q-13 -8 -166.5 -107t-170.5 -111z" />
<glyph unicode="2" horiz-adv-x="1085" d="M136 1017v4q0 69 25.5 133.5t74 118t127.5 86t176 32.5q95 0 172 -29t126 -79t75.5 -115t26.5 -138q0 -49 -13.5 -98t-30 -84.5t-50.5 -82.5t-53 -70t-59 -70l-480 -548v-4h717v-73h-827v64l536 614q42 48 64.5 76.5t53 76.5t44 97.5t13.5 104.5q0 117 -84 201t-232 84 t-234 -88.5t-87 -208.5v-4h-81z" />
<glyph unicode="3" horiz-adv-x="1097" d="M101 340h81q4 -119 102 -208.5t263 -89.5q161 0 262 89t100 226q0 138 -109 223t-279 85h-136v74h121q157 0 247.5 85.5t89.5 212.5q0 122 -86 201.5t-233 79.5q-66 0 -120 -19t-89 -48.5t-59 -68t-34 -75.5t-11 -72h-82q0 45 13.5 92t44 95t75 85t113 60.5t151.5 23.5 q184 0 292.5 -98t109.5 -248q1 -143 -86.5 -234.5t-197.5 -103.5v-2q63 -5 123.5 -29t111.5 -65.5t82.5 -107t31.5 -144.5q1 -171 -127 -281t-323 -110q-104 0 -190 32t-139.5 85t-82.5 119t-30 136z" />
<glyph unicode="4" horiz-adv-x="1106" d="M85 331v73q29 51 301 470t318 486h120v-955h198v-74h-198v-331h-77v331h-662zM173 405h574v882h-4q-38 -56 -292 -446t-278 -433v-3z" />
<glyph unicode="5" horiz-adv-x="1113" d="M125 328h83q3 -48 25 -96t62.5 -91.5t109.5 -71t155 -27.5q152 0 258.5 109.5t106.5 270.5q0 163 -102.5 271t-262.5 108q-121 0 -209.5 -58t-123.5 -127h-77l91 744h672v-73h-604l-75 -570h2q17 29 56.5 62.5t115.5 64.5t160 31q192 0 316.5 -128t124.5 -324 q0 -192 -129 -323t-325 -131q-87 0 -159.5 23t-121 60t-82.5 85t-50 96t-17 95z" />
<glyph unicode="6" horiz-adv-x="1077" d="M97 595q0 208 35.5 362.5t101.5 248t154.5 139t199.5 45.5q80 0 151.5 -31t119.5 -80.5t78.5 -110t37.5 -121.5h-80q-5 44 -28.5 90t-61 87t-96 67t-126.5 26q-187 0 -297 -174t-112 -529h2q31 104 138.5 181.5t261.5 77.5q80 0 157 -31.5t138 -87.5t98.5 -143t37.5 -190 q0 -201 -126 -326.5t-318 -125.5q-100 0 -184 38.5t-147.5 114t-99 196.5t-35.5 277zM197 447q0 -174 107 -289.5t262 -115.5t257 104t102 267q0 87 -30 161t-79.5 122.5t-113 75.5t-131.5 27q-73 0 -139.5 -23.5t-119 -66.5t-84 -111t-31.5 -151z" />
<glyph unicode="7" d="M108 1286v74h817v-78l-586 -1282h-89l593 1282v4h-735z" />
<glyph unicode="8" horiz-adv-x="1117" d="M101 362q0 65 20 121.5t52 96t72.5 69.5t80 46.5t76.5 22.5v6q-31 7 -63.5 22t-66.5 42t-60 61.5t-42.5 83.5t-16.5 105q0 155 113 253.5t293 98.5q179 0 292 -98.5t113 -253.5q0 -56 -16.5 -105.5t-43 -84t-60 -61t-66 -41.5t-63.5 -22v-6q47 -8 97 -33t97 -67t77 -109 t30 -147q0 -173 -129.5 -283t-329.5 -110q-199 0 -327.5 110t-128.5 283zM183 369q0 -145 106 -236.5t270 -91.5q163 0 268.5 91.5t105.5 236.5q0 137 -104.5 226t-269.5 89q-166 0 -271 -89t-105 -226zM235 1032q0 -122 92.5 -201t231.5 -79q138 0 230.5 79t92.5 201 q0 128 -91 207t-232 79t-232.5 -79t-91.5 -207z" />
<glyph unicode="9" horiz-adv-x="1077" d="M89 940q0 197 124.5 323.5t307.5 126.5q83 0 151.5 -22.5t126 -73t97 -127t61 -188.5t21.5 -254q0 -390 -120.5 -572.5t-352.5 -182.5q-90 0 -165.5 31.5t-122.5 83t-74.5 112t-32.5 123.5h80q5 -48 26 -94t58 -88t98.5 -68t138.5 -26q193 0 291 168.5t98 540.5h-3 q-17 -52 -46.5 -96.5t-74.5 -84.5t-111.5 -63t-146.5 -23q-84 0 -161 30.5t-137 86t-95.5 143.5t-35.5 194zM171 940q0 -173 103 -276.5t258 -103.5q141 0 243.5 102.5t102.5 248.5q0 179 -96.5 293t-257.5 114q-151 0 -252 -107.5t-101 -270.5z" />
<glyph unicode=":" horiz-adv-x="418" d="M131 80q0 32 22.5 55t54.5 23t55 -23t23 -55q0 -31 -23 -54t-55 -23t-54.5 22.5t-22.5 54.5zM131 815q0 32 22.5 55t54.5 23t55 -23.5t23 -54.5q0 -32 -23 -55t-55 -23t-54.5 23t-22.5 55z" />
<glyph unicode=";" horiz-adv-x="428" d="M79 -259l81 367h94l-109 -367h-66zM117 815q0 32 23 55t54 23q32 0 55 -23t23 -55t-23 -55t-55 -23t-54.5 23t-22.5 55z" />
<glyph unicode="&#x3c;" d="M125 467v79l780 538v-88l-703 -481v-10l703 -448v-88z" />
<glyph unicode="=" d="M113 332v71h820v-71h-820zM113 689v71h820v-71h-820z" />
<glyph unicode="&#x3e;" d="M149 -31v88l704 448v10l-704 481v88l781 -538v-79z" />
<glyph unicode="?" horiz-adv-x="879" d="M62 1059q6 147 107 240t279 93q158 0 263.5 -85t105.5 -233q0 -104 -51.5 -179t-153.5 -152q-95 -72 -125.5 -128.5t-30.5 -132.5v-89h-82v100q0 90 41 157t146 146q91 70 131.5 131t40.5 144q0 119 -83.5 183.5t-207.5 64.5q-79 0 -140 -25.5t-93.5 -66.5t-49.5 -83 t-19 -85h-78zM341 62q0 32 22.5 55t54.5 23t55 -23t23 -55t-23 -54.5t-55 -22.5t-54.5 22.5t-22.5 54.5z" />
<glyph unicode="@" horiz-adv-x="1638" d="M108 491v48q0 174 53.5 317.5t149.5 242t230.5 152.5t294.5 54h7q131 0 244.5 -36t195.5 -99.5t141.5 -147.5t88.5 -181.5t29 -201.5v-53q0 -198 -86 -306.5t-214 -108.5q-90 0 -149.5 43.5t-68.5 112.5h-5q-4 -14 -12 -31.5t-26.5 -40t-42 -41t-61 -31t-80.5 -12.5 q-114 0 -185 80t-71 230v96q0 137 67 220t191 83q54 0 95.5 -16.5t64.5 -42.5t35 -47.5t16 -40.5h5v131h69v-472q0 -45 15 -78t40.5 -50t52.5 -24.5t57 -7.5q94 0 159 89.5t65 275.5v38q0 121 -42.5 230t-120.5 193t-199 133t-268 49h-7q-192 0 -340 -84t-231.5 -245.5 t-83.5 -378.5v-35q0 -160 51 -289t140 -211t207.5 -125.5t255.5 -43.5h9q174 0 298 44v-65q-107 -43 -298 -43h-9q-156 0 -288.5 48t-230.5 138t-153 229t-55 312zM615 489q0 -127 55 -189.5t141 -62.5q38 0 71.5 12.5t63 37.5t47 70.5t17.5 105.5v121q0 97 -52.5 164.5 t-146.5 67.5q-90 0 -143 -64.5t-53 -178.5v-84z" />
<glyph unicode="A" horiz-adv-x="1180" d="M60 0l487 1360h86l487 -1360h-87l-161 458h-567l-160 -458h-85zM329 528h519l-257 731h-4z" />
<glyph unicode="B" horiz-adv-x="1208" d="M190 0v1360h441q184 0 289.5 -88.5t105.5 -244.5q0 -71 -23 -130t-59.5 -95.5t-75 -58.5t-76.5 -31v-5q133 -14 221.5 -100t88.5 -239q0 -171 -117.5 -269.5t-330.5 -98.5h-464zM272 75h361q182 0 283.5 74.5t101.5 217.5q0 145 -101 219.5t-258 74.5h-387v-586zM272 736 h338q145 0 238.5 71t93.5 209q0 130 -86 199t-238 69h-346v-548z" />
<glyph unicode="C" horiz-adv-x="1245" d="M135 563v231q0 127 31.5 234.5t93 189t160 127.5t225.5 46q113 0 205.5 -38t148.5 -99t86.5 -133t30.5 -145v-3h-80q0 59 -26 118.5t-73.5 110t-124 82.5t-167.5 32q-106 0 -189 -40t-134.5 -110.5t-78 -162.5t-26.5 -200v-248q0 -109 26 -200.5t77.5 -162t135.5 -110 t194 -39.5q178 0 286.5 98t108.5 240h80v-3q0 -78 -32.5 -151t-91 -130.5t-150.5 -92.5t-202 -35q-131 0 -231 45t-161 126.5t-91.5 187.5t-30.5 235z" />
<glyph unicode="D" horiz-adv-x="1294" d="M190 0v1360h366q159 0 277 -48.5t190 -139.5t106.5 -213.5t34.5 -278.5q0 -124 -20.5 -226.5t-66.5 -187.5t-116 -143.5t-172.5 -90.5t-232.5 -32h-366zM272 75h284q268 0 396.5 158.5t128.5 446.5q0 140 -30.5 249.5t-93.5 189.5t-164 122.5t-237 42.5h-284v-1209z" />
<glyph unicode="E" horiz-adv-x="1093" d="M190 0v1360h776v-76h-694v-550h660v-75h-660v-584h694v-75h-776z" />
<glyph unicode="F" horiz-adv-x="1038" d="M190 0v1360h765v-76h-683v-563h627v-76h-627v-645h-82z" />
<glyph unicode="G" horiz-adv-x="1263" d="M135 573v228q0 272 134 431t376 159q111 0 201 -34.5t146 -92t87.5 -125t35.5 -139.5h-78q-5 45 -22.5 88.5t-50 85t-76.5 73t-107 50.5t-136 19q-201 0 -314.5 -136.5t-113.5 -378.5v-228q0 -242 109.5 -386t326.5 -144q176 0 286.5 94.5t110.5 259.5v186h-407v75h485 v-261q0 -191 -129.5 -309.5t-347.5 -118.5q-131 0 -231.5 45.5t-162 127.5t-92 190.5t-30.5 240.5z" />
<glyph unicode="H" horiz-adv-x="1334" d="M190 0v1360h82v-609h789v609h82v-1360h-82v676h-789v-676h-82z" />
<glyph unicode="I" horiz-adv-x="493" d="M206 0v1360h81v-1360h-81z" />
<glyph unicode="J" horiz-adv-x="929" d="M59 295h81q0 -41 15 -81.5t44 -77t82 -59t122 -22.5q123 0 197.5 75.5t74.5 225.5v1004h82v-1000q0 -188 -96 -284t-260 -96q-89 0 -158 29.5t-107.5 77t-57.5 100.5t-19 108z" />
<glyph unicode="K" horiz-adv-x="1134" d="M190 0v1360h82v-730h3l681 730h104l-558 -604l590 -756h-106l-544 700l-170 -179v-521h-82z" />
<glyph unicode="L" horiz-adv-x="1013" d="M190 0v1360h82v-1285h683v-75h-765z" />
<glyph unicode="M" horiz-adv-x="1575" d="M192 0v1360h81l512 -1160h4l514 1160h80v-1360h-75v1177h-4l-478 -1072h-77l-478 1072h-4v-1177h-75z" />
<glyph unicode="N" horiz-adv-x="1334" d="M190 0v1360h85l784 -1216h4v1216h80v-1360h-84l-784 1216h-4v-1216h-81z" />
<glyph unicode="O" horiz-adv-x="1310" d="M135 556v244q0 271 138 431t382 160t382 -160.5t138 -432.5v-242q0 -271 -138 -429t-383 -158t-382 158t-137 429zM216 550q0 -232 118 -369.5t321 -137.5t320.5 137.5t117.5 369.5v256q0 231 -118.5 370.5t-319.5 139.5t-320 -139.5t-119 -370.5v-256z" />
<glyph unicode="P" horiz-adv-x="1141" d="M190 0v1360h439q200 0 311.5 -107.5t111.5 -293.5t-111 -292.5t-312 -106.5h-357v-560h-82zM272 634h327q178 0 273.5 82t95.5 243q0 154 -89.5 239.5t-252.5 85.5h-354v-650z" />
<glyph unicode="Q" horiz-adv-x="1310" d="M135 568v233q0 272 137 431t382 159t382.5 -159t137.5 -431v-233q0 -163 -51 -288t-148 -200l182 -248h-93l-152 206q-111 -60 -258 -60q-245 0 -382 159t-137 431zM216 562q0 -233 117.5 -371.5t320.5 -138.5q118 0 210 50l-184 250h98l150 -206q80 65 122.5 172 t42.5 244v245q0 232 -118.5 370.5t-320.5 138.5q-201 0 -319.5 -139t-118.5 -370v-245z" />
<glyph unicode="R" horiz-adv-x="1187" d="M190 0v1360h447q191 0 301 -106t110 -276q0 -152 -79.5 -244.5t-209.5 -123.5l312 -610h-95l-302 594h-402v-594h-82zM272 668h351q159 0 250.5 82t91.5 225q0 145 -91.5 228t-248.5 83h-353v-618z" />
<glyph unicode="S" horiz-adv-x="1155" d="M106 345h83q2 -51 24 -100.5t65.5 -96t121.5 -75.5t179 -29q169 0 273.5 83.5t104.5 214.5q0 120 -76 183.5t-241 107.5l-178 48q-311 83 -311 345q0 166 120 266t316 100q194 0 310.5 -97.5t118.5 -246.5h-84q-2 49 -22.5 95t-60 86t-108 64t-155.5 24q-162 0 -256 -79 t-94 -210q0 -110 64.5 -173t198.5 -99l172 -47q94 -26 158 -54t114.5 -69.5t74 -100.5t23.5 -138q0 -174 -131 -276t-340 -102q-99 0 -180 24.5t-132.5 63.5t-86.5 89.5t-50 100t-15 98.5z" />
<glyph unicode="T" horiz-adv-x="1067" d="M50 1285v75h967v-75h-442v-1285h-81v1285h-444z" />
<glyph unicode="U" horiz-adv-x="1327" d="M177 464v896h81v-891q0 -195 106.5 -309t298.5 -114q193 0 299 113.5t106 309.5v891h82v-896q0 -226 -129 -360.5t-358 -134.5t-357.5 134.5t-128.5 360.5z" />
<glyph unicode="V" horiz-adv-x="1200" d="M57 1360h91l448 -1258h4l453 1258h90l-502 -1360h-90z" />
<glyph unicode="W" horiz-adv-x="1715" d="M57 1360h89l315 -1233h4l349 1233h87l348 -1233h4l316 1233h89l-361 -1360h-87l-350 1226h-5l-350 -1226h-87z" />
<glyph unicode="X" horiz-adv-x="1144" d="M57 0l465 680l-465 680h98l417 -613h5l417 613h95l-469 -683l464 -677h-98l-414 611h-6l-414 -611h-95z" />
<glyph unicode="Y" horiz-adv-x="1097" d="M39 1360h96l412 -668h5l413 668h94l-469 -751v-609h-81v607z" />
<glyph unicode="Z" horiz-adv-x="1152" d="M96 0v65l850 1217v4h-823v74h924v-65l-849 -1217v-5h853v-73h-955z" />
<glyph unicode="[" horiz-adv-x="580" d="M154 -223v1583h343v-63h-266v-1457h279v-63h-356z" />
<glyph unicode="\" horiz-adv-x="628" d="M30 1435h75l494 -1750h-74z" />
<glyph unicode="]" horiz-adv-x="580" d="M70 -160h279v1457h-266v63h343v-1583h-356v63z" />
<glyph unicode="^" horiz-adv-x="749" d="M85 794l249 570h80l250 -570h-75l-213 488h-4l-213 -488h-74z" />
<glyph unicode="_" horiz-adv-x="851" d="M-23 -123h896v-70h-896v70z" />
<glyph unicode="`" horiz-adv-x="805" d="M206 1495h91l229 -294h-72z" />
<glyph unicode="a" horiz-adv-x="1014" d="M104 290q0 132 90.5 210t260.5 78h317v147q0 127 -73 190.5t-202 63.5q-233 0 -270 -204h-78q14 127 103 202t250 75t256 -81.5t95 -230.5v-740h-79v167h-4q-11 -28 -35.5 -57.5t-63 -59.5t-99 -49t-130.5 -19q-152 0 -245 83.5t-93 224.5zM189 292q0 -109 73.5 -173 t189.5 -64q134 0 227 81.5t93 210.5v160h-315q-134 0 -201 -58t-67 -157z" />
<glyph unicode="b" horiz-adv-x="1113" d="M171 0v1435h81v-598h4q11 30 33.5 62t62 69t103 60.5t139.5 23.5q175 0 286 -120t111 -324v-180q0 -107 -32 -193.5t-87.5 -141t-127 -83t-152.5 -28.5q-73 0 -134 21t-100.5 55.5t-64 69t-39.5 71.5h-4v-199h-79zM251 440q0 -170 92.5 -277t246.5 -107q64 0 120.5 24 t101.5 70t71 121.5t26 170.5v154q0 179 -90 280.5t-229 101.5q-105 0 -183.5 -52t-117 -137t-38.5 -189v-160z" />
<glyph unicode="c" horiz-adv-x="1032" d="M123 446v151q0 213 112 334t295 121q89 0 162 -28t119.5 -74t73 -100.5t29.5 -111.5h-79q-16 99 -95.5 169.5t-206.5 70.5q-150 0 -240 -103.5t-90 -289.5v-132q0 -189 90 -292.5t247 -103.5q133 0 207 65t91 157h78q-8 -56 -33 -106.5t-69 -94.5t-116.5 -70t-164.5 -26 q-190 0 -300 122.5t-110 341.5z" />
<glyph unicode="d" horiz-adv-x="1112" d="M123 428v178q0 209 114 328t284 119q73 0 133.5 -21t100 -55.5t63.5 -68.5t38 -69h4v596h81v-1435h-79v202h-4q-9 -24 -23.5 -50t-43.5 -57.5t-64.5 -55.5t-90 -40.5t-116.5 -16.5q-178 0 -287.5 122t-109.5 324zM204 438q0 -179 91 -280t230 -101q104 0 182 53t116 138 t38 188v158q0 167 -92.5 275.5t-243.5 108.5q-136 0 -228.5 -98.5t-92.5 -286.5v-155z" />
<glyph unicode="e" horiz-adv-x="1050" d="M123 458v110q0 231 108 357.5t294 126.5t294.5 -126.5t108.5 -360.5v-55h-725v-51q0 -191 89.5 -297.5t244.5 -106.5q129 0 205 62t90 144h81q-7 -50 -33 -97.5t-70.5 -89t-116 -67t-158.5 -25.5q-193 0 -302.5 125.5t-109.5 350.5zM203 581h644v4q0 183 -87.5 288.5 t-234.5 105.5t-234.5 -105.5t-87.5 -288.5v-4z" />
<glyph unicode="f" horiz-adv-x="619" d="M54 964v71h164v136q0 138 66 198.5t198 60.5q34 0 80 -7v-70q-37 5 -75 5q-98 0 -143 -43t-45 -147v-133h257v-71h-257v-964h-81v964h-164z" />
<glyph unicode="g" horiz-adv-x="1112" d="M123 474v134q0 108 32.5 194t88 140t127 82t152.5 28q72 0 133 -21.5t100.5 -55.5t64 -68t37.5 -69h4v197h79v-1042q0 -161 -110.5 -257.5t-294.5 -96.5q-92 0 -166 24t-119 64.5t-69.5 88.5t-28.5 100h83q8 -80 87 -142t214 -62q150 0 236.5 76.5t86.5 202.5v257h-4 q-7 -22 -21.5 -47.5t-42.5 -56.5t-64 -55.5t-90.5 -41t-116.5 -16.5q-175 0 -286.5 120t-111.5 323zM204 486q0 -178 91 -279.5t234 -101.5q103 0 179.5 53t114 137.5t37.5 187.5v114q0 166 -91 274t-240 108q-139 0 -232 -99t-93 -286v-108z" />
<glyph unicode="h" horiz-adv-x="1110" d="M171 0v1435h81v-592h4q29 85 115.5 147t219.5 62q160 0 260.5 -99t100.5 -276v-677h-81v667q0 138 -78 224t-214 86q-79 0 -142.5 -29t-103 -78t-60.5 -110.5t-21 -128.5v-631h-81z" />
<glyph unicode="i" horiz-adv-x="434" d="M146 1307q0 30 20.5 51t50.5 21t51 -21t21 -51t-21 -50.5t-51 -20.5t-50.5 20.5t-20.5 50.5zM177 0v1035h80v-1035h-80z" />
<glyph unicode="j" horiz-adv-x="434" d="M-39 -260q35 -7 66 -7q80 0 115 44.5t35 151.5v1106h80v-1104q0 -143 -54.5 -206.5t-166.5 -63.5q-45 0 -75 8v71zM146 1307q0 30 20.5 51t50.5 21t51 -21t21 -51t-21 -50.5t-51 -20.5t-50.5 20.5t-20.5 50.5z" />
<glyph unicode="k" horiz-adv-x="984" d="M171 0v1435h81v-911h4l543 511h108l-451 -428l475 -607h-103l-433 554l-143 -133v-421h-81z" />
<glyph unicode="l" horiz-adv-x="447" d="M183 0v1435h81v-1435h-81z" />
<glyph unicode="m" horiz-adv-x="1667" d="M171 0v1035h80v-170h5q10 31 30.5 61.5t54 60t86 47.5t115.5 18q127 0 205.5 -60t102.5 -151h5q9 33 31 67t59 67.5t96 55t129 21.5q151 0 243 -90t92 -254v-708h-80v689q0 139 -72 213.5t-192 74.5q-133 0 -208 -88.5t-75 -212.5v-676h-80v682q0 141 -71 218t-194 77 q-132 0 -207 -89.5t-75 -226.5v-661h-80z" />
<glyph unicode="n" horiz-adv-x="1107" d="M171 0v1035h80v-192h4q29 85 114.5 147t218.5 62q160 0 260 -99t100 -276v-677h-81v667q0 138 -77.5 224t-213.5 86q-104 0 -179.5 -50.5t-110.5 -127.5t-35 -168v-631h-80z" />
<glyph unicode="o" horiz-adv-x="1090" d="M123 442v147q0 217 116 340t305 123q186 0 304.5 -124.5t118.5 -338.5v-147q0 -215 -117.5 -337.5t-305.5 -122.5t-304.5 122.5t-116.5 337.5zM203 451q0 -189 94 -292t248 -103q152 0 246.5 102.5t94.5 292.5v130q0 188 -95 293t-247 105q-153 0 -247 -104t-94 -294 v-130z" />
<glyph unicode="p" horiz-adv-x="1111" d="M171 -336v1371h79v-200h4q9 24 24 49t44 56t64.5 55t90 40.5t116.5 16.5q173 0 284 -121t111 -324v-178q0 -108 -32.5 -194.5t-87.5 -140.5t-126.5 -83t-151.5 -29q-58 0 -109.5 14.5t-86.5 36t-64 51.5t-46 56.5t-28 54.5h-4v-531h-81zM251 442q0 -167 92.5 -276.5 t244.5 -109.5q135 0 227 100t92 288v153q0 178 -90 280t-230 102q-155 0 -245.5 -111t-90.5 -270v-156z" />
<glyph unicode="q" horiz-adv-x="1113" d="M123 431v174q0 107 32 193.5t86.5 141t125.5 83.5t152 29q74 0 135 -20.5t101 -55t64.5 -68.5t39.5 -70h4v197h79v-1371h-81v535h-4q-8 -22 -22.5 -47t-43 -56.5t-64.5 -56t-91.5 -41t-118.5 -16.5q-174 0 -284 122.5t-110 326.5zM204 441q0 -179 90.5 -282t231.5 -103 q104 0 182 53.5t116 139.5t38 189v157q0 166 -92.5 274.5t-244.5 108.5q-137 0 -229 -99.5t-92 -286.5v-151z" />
<glyph unicode="r" horiz-adv-x="669" d="M171 0v1035h80v-192h4q63 208 290 208q31 0 76 -7v-77q-44 8 -86 8q-139 0 -211.5 -99t-72.5 -271v-605h-80z" />
<glyph unicode="s" horiz-adv-x="959" d="M97 266h79q2 -35 18.5 -70t49.5 -67.5t91.5 -53t134.5 -20.5q130 0 213.5 56.5t83.5 162.5q0 28 -7.5 51t-17.5 40t-34 33t-41.5 25.5t-57 22.5t-64.5 20.5t-78 21.5q-68 18 -111.5 32.5t-90.5 38t-73.5 50.5t-43.5 67.5t-17 91.5q0 134 97.5 209t253.5 75 q91 0 160.5 -26.5t108.5 -69t58 -88.5t19 -93h-79q0 25 -8 51t-28 54t-49.5 50t-77.5 36t-107 14q-116 0 -191 -52.5t-75 -154.5q0 -38 13.5 -67t34 -49.5t59 -38t75.5 -29.5t96 -27q157 -40 214 -67q125 -59 141 -176q3 -20 3 -42q0 -97 -53 -165t-137.5 -99t-192.5 -31 q-94 0 -168 26t-116 68t-63.5 90.5t-21.5 99.5z" />
<glyph unicode="t" horiz-adv-x="632" d="M54 964v71h164v252h81v-252h257v-71h-257v-743q0 -93 40.5 -127t141.5 -34q47 0 89 7v-68q-47 -9 -104 -9q-142 0 -195 55t-53 192v727h-164z" />
<glyph unicode="u" horiz-adv-x="1105" d="M159 335v700h81v-685q0 -137 77.5 -215t207.5 -78q77 0 140.5 29.5t104 79.5t62.5 114t22 134v621h81v-1035h-81v192h-4q-31 -84 -116.5 -147t-220.5 -63q-157 0 -255.5 90.5t-98.5 262.5z" />
<glyph unicode="v" horiz-adv-x="919" d="M35 1035h87l334 -931h5l339 931h84l-383 -1035h-85z" />
<glyph unicode="w" horiz-adv-x="1403" d="M41 1035h85l239 -919h5l290 919h82l290 -919h6l238 919h86l-283 -1035h-84l-292 919h-4l-292 -919h-84z" />
<glyph unicode="x" horiz-adv-x="931" d="M52 0l365 521l-355 514h97l308 -447h3l308 447h93l-356 -512l364 -523h-97l-317 455h-3l-318 -455h-92z" />
<glyph unicode="y" horiz-adv-x="920" d="M35 1035h90l337 -946h4l333 946h86l-373 -1036l-44 -116q-44 -116 -103.5 -170t-168.5 -54q-48 0 -95 9v73q40 -9 88 -9q80 0 126 40.5t73 118.5l34 96z" />
<glyph unicode="z" horiz-adv-x="908" d="M97 0v65l623 894v4h-623v72h724v-68l-623 -891v-4h625v-72h-726z" />
<glyph unicode="{" horiz-adv-x="676" d="M95 537v115q98 0 131.5 47.5t33.5 158.5v270q0 87 21 145t66.5 90.5t105 45.5t147.5 13h36v-70h-61q-123 0 -180 -51t-57 -162v-318q0 -104 -38 -156t-120 -60v-19q82 -7 120 -59t38 -156v-377q0 -110 59 -161.5t178 -51.5h61v-71h-36q-176 0 -258 66.5t-82 237.5v319 q0 111 -33.5 157.5t-131.5 46.5z" />
<glyph unicode="|" horiz-adv-x="420" d="M173 -308v1743h74v-1743h-74z" />
<glyph unicode="}" horiz-adv-x="676" d="M40 -219h61q119 0 178 51.5t59 161.5v377q0 103 38.5 155t119.5 60v19q-81 8 -119.5 60t-38.5 156v318q0 111 -57 162t-180 51h-61v70h36q88 0 147.5 -13t105 -45.5t66.5 -90.5t21 -145v-270q0 -111 34 -158.5t131 -47.5v-115q-98 0 -131.5 -47t-33.5 -157v-319 q0 -171 -82 -237.5t-258 -66.5h-36v71z" />
<glyph unicode="~" horiz-adv-x="1124" d="M117 542q0 122 68 202.5t175 80.5q54 0 102 -23.5t83.5 -57.5t69.5 -67.5t74.5 -57t83.5 -23.5q74 0 115 61.5t45 149.5h77q0 -50 -13.5 -98t-41 -90.5t-74.5 -68.5t-107 -26q-57 0 -106.5 23.5t-86 57t-70 67.5t-72.5 57.5t-80 23.5q-70 0 -116.5 -58t-48.5 -153h-77z " />
<glyph unicode="&#xa1;" horiz-adv-x="487" d="M165 977q0 32 23 54.5t55 22.5t54.5 -22.5t22.5 -54.5t-22.5 -55t-54.5 -23t-55 23t-23 55zM200 -320l8 987h70l9 -987h-87z" />
<glyph unicode="&#xa2;" horiz-adv-x="1092" d="M146 595v171q0 199 102.5 315.5t271.5 128.5v244h74v-243q80 -5 146 -35.5t107 -75.5t64 -96.5t26 -104.5h-78q-14 96 -91.5 167.5t-209.5 71.5q-152 0 -242 -101.5t-90 -283.5v-151q0 -185 90.5 -284.5t248.5 -99.5q71 0 126.5 19.5t89 52.5t53 69.5t28.5 78.5h77 q-4 -50 -26 -98t-62 -91.5t-106.5 -72t-150.5 -32.5v-235h-74v235q-174 12 -274 129t-100 322z" />
<glyph unicode="&#xa3;" horiz-adv-x="1092" d="M75 668v72h243v335q0 153 89.5 234.5t243.5 81.5q151 0 241.5 -82.5t96.5 -197.5h-80q-5 81 -72 143.5t-183 62.5q-126 0 -190 -65.5t-64 -184.5v-327h329v-72h-329v-331q0 -210 -94 -253v-10h676v-74h-884v77q27 0 45.5 1.5t43.5 7t42 16.5t35 30.5t29 47.5t18 69.5 t7 94.5v324h-243z" />
<glyph unicode="&#xa4;" horiz-adv-x="1092" d="M98 258l189 188q-74 90 -74 211q0 119 73 208l-188 187l51 51l187 -187q90 76 211 76q119 0 210 -75l186 186l50 -51l-185 -186q73 -90 73 -209q0 -123 -75 -212l187 -187l-50 -51l-188 188q-92 -74 -208 -74q-118 0 -209 75l-189 -189zM281 657q0 -111 77.5 -189 t188.5 -78q110 0 187.5 78t77.5 189q0 110 -77.5 188.5t-187.5 78.5q-111 0 -188.5 -78t-77.5 -189z" />
<glyph unicode="&#xa5;" horiz-adv-x="1092" d="M33 1360h96l412 -668h6l413 668h94l-440 -704h240v-68h-269v-186h269v-68h-269v-334h-81v334h-270v68h270v186h-270v68h240z" />
<glyph unicode="&#xa6;" horiz-adv-x="373" d="M149 -309v685h75v-685h-75zM149 783v654h75v-654h-75z" />
<glyph unicode="&#xa7;" horiz-adv-x="941" d="M88 54h76q5 -105 85 -169t220 -64q137 0 218.5 70.5t81.5 166.5q0 97 -74.5 146.5t-244.5 89.5q-71 17 -116 31t-94.5 37.5t-77.5 51.5t-46.5 71.5t-18.5 98.5q0 53 19 98.5t50.5 76t62 50t62.5 31.5v5q-28 14 -47 26t-45 34.5t-41.5 47.5t-27 63t-11.5 83q0 130 98 211 t248 81q154 0 248.5 -81t94.5 -216h-79q-1 102 -78 162t-185 60q-125 0 -195 -62.5t-70 -151.5q0 -53 20.5 -93t64 -68t92 -46.5t123.5 -38.5q47 -12 76 -21t69 -23.5t64.5 -29t51.5 -36t42 -46.5t25 -58.5t10 -73.5q0 -88 -48.5 -155.5t-112.5 -105.5v-5q173 -72 173 -232 q0 -138 -107 -230.5t-278 -92.5q-176 0 -277 83.5t-101 223.5zM178 592q0 -87 58 -134.5t185 -79.5l185 -48q57 27 103.5 87.5t46.5 144.5q0 145 -203 201l-181 51q-68 -13 -131 -75.5t-63 -146.5z" />
<glyph unicode="&#xa8;" horiz-adv-x="805" d="M185 1300q0 27 18.5 46t45.5 19t45.5 -19t18.5 -46t-18.5 -46t-45.5 -19t-45.5 19t-18.5 46zM484 1300q0 27 18.5 46t45.5 19t45.5 -19t18.5 -46t-18.5 -46t-45.5 -19t-45.5 19t-18.5 46z" />
<glyph unicode="&#xa9;" horiz-adv-x="1650" d="M123 640v105q0 140 53 264.5t145 215t224.5 143.5t284.5 53t285 -53.5t225 -144.5t145 -215.5t53 -262.5v-105q0 -149 -51.5 -278t-143 -222t-224.5 -146t-289 -53q-207 0 -369 91t-250 250t-88 358zM195 636q0 -178 79 -321t224.5 -225t331.5 -82q187 0 333 82t225 225 t79 321v109q0 124 -47 235.5t-129.5 194t-202.5 131t-258 48.5q-184 0 -330 -82.5t-225.5 -221.5t-79.5 -305v-109zM531 637v99q0 154 81 235t224 81q122 0 192.5 -62t79.5 -140h-78q-11 53 -58 93t-136 40q-231 0 -231 -252v-96q0 -122 61 -184.5t170 -62.5q90 0 139 33.5 t60 86.5h78q-11 -78 -84 -134.5t-193 -56.5q-144 0 -224.5 81t-80.5 239z" />
<glyph unicode="&#xaa;" horiz-adv-x="610" d="M96 945q0 74 49.5 115t140.5 41h154v65q0 58 -34.5 86.5t-96.5 28.5q-57 0 -87.5 -21.5t-37.5 -53.5h-66q5 62 56.5 98.5t137.5 36.5q89 0 142.5 -42.5t53.5 -129.5v-378h-66v81h-3q-19 -36 -60 -63t-105 -27q-81 0 -129.5 44t-48.5 119zM164 948q0 -51 36 -79t90 -28 q62 0 106 38t44 96v71h-151q-62 0 -93.5 -26.5t-31.5 -71.5z" />
<glyph unicode="&#xab;" horiz-adv-x="1175" d="M146 557v8l366 399h95l-361 -398v-6l361 -400h-104zM552 557v8l367 399h94l-361 -398v-6l361 -400h-103z" />
<glyph unicode="&#xac;" d="M108 513v72h821v-429h-77v357h-744z" />
<glyph unicode="&#xad;" horiz-adv-x="762" d="M66 525v73h630v-73h-630z" />
<glyph unicode="&#xae;" horiz-adv-x="1132" d="M109 904v48q0 185 130.5 310t329.5 125q198 0 328.5 -125.5t130.5 -309.5v-48q0 -196 -128 -323t-331 -127t-331.5 127t-128.5 323zM169 900q0 -170 111 -279.5t288 -109.5t289 109.5t112 279.5v56q0 159 -113 267.5t-288 108.5q-173 0 -286 -109t-113 -267v-56zM405 679 v501h190q71 0 115 -41t44 -108q0 -55 -28.5 -91.5t-74.5 -49.5q9 -15 25.5 -44.5t44 -78.5t49.5 -88h-65l-112 201h-131v-201h-57zM462 930h119q52 0 83.5 26t31.5 74q0 47 -30 73.5t-82 26.5h-122v-200z" />
<glyph unicode="&#xaf;" horiz-adv-x="805" d="M126 1270v61h553v-61h-553z" />
<glyph unicode="&#xb0;" horiz-adv-x="471" d="M50 1183q0 77 54.5 131.5t131.5 54.5q76 0 130.5 -54.5t54.5 -131.5t-54 -131.5t-131 -54.5t-131.5 54.5t-54.5 131.5zM112 1183q0 -50 37 -87t87 -37q52 0 88.5 36.5t36.5 87.5q0 53 -36.5 89t-88.5 36q-50 0 -87 -36.5t-37 -88.5z" />
<glyph unicode="&#xb1;" d="M77 690v75h411v305h71v-305h411v-75h-411v-324h-71v324h-411zM78 151v75h893v-75h-893z" />
<glyph unicode="&#xb2;" horiz-adv-x="647" d="M105 1198v4q0 76 53 130.5t152 54.5q93 0 149 -51t56 -127q0 -50 -26 -94t-82 -103l-208 -217v-3h328v-60h-421v46l258 277q80 84 80 151q0 52 -37 86t-99 34q-65 0 -100 -36t-35 -88v-4h-68z" />
<glyph unicode="&#xb3;" horiz-adv-x="623" d="M82 884h64q3 -44 45 -74t106 -30q71 0 114 36t43 92q0 57 -44 92t-114 35h-71v58h65q63 0 101.5 34.5t38.5 86.5q0 50 -37 82t-98 32q-60 0 -96.5 -30t-38.5 -69h-65q2 62 55.5 110t145.5 48q91 0 147 -47t56 -117q0 -60 -40 -102.5t-91 -51.5v-2q62 -8 108 -48t46 -110 q0 -82 -63.5 -134.5t-163.5 -52.5q-96 0 -153.5 47t-59.5 115z" />
<glyph unicode="&#xb4;" horiz-adv-x="805" d="M266 1201l230 294h90l-248 -294h-72z" />
<glyph unicode="&#xb6;" horiz-adv-x="1160" d="M159 949q0 98 31 174.5t77.5 121t108 73t114 38t104.5 9.5h101v-1575h-82v747h-20q-49 0 -103.5 12t-114.5 42.5t-107 75.5t-78 118.5t-31 163.5zM868 -210v1575h81v-1575h-81z" />
<glyph unicode="&#xb7;" horiz-adv-x="462" d="M153 544q0 32 23 55t55 23t55 -23t23 -55t-23 -54.5t-55 -22.5t-55 22.5t-23 54.5z" />
<glyph unicode="&#xb8;" horiz-adv-x="805" d="M238 -386q45 -15 121 -15q61 0 106 26t45 78q0 99 -153 99h-50v48l65 152h67l-58 -141q88 0 147 -38t59 -116q0 -83 -66 -126.5t-158 -44.5q-71 -1 -125 15v63z" />
<glyph unicode="&#xb9;" horiz-adv-x="523" d="M118 1176v68l166 116h69v-628h-69v554h-3z" />
<glyph unicode="&#xba;" horiz-adv-x="596" d="M68 1021v82q0 110 64.5 174t165.5 64q100 0 165 -63.5t65 -174.5v-82q0 -113 -64.5 -176t-165.5 -63q-102 0 -166 63t-64 176zM136 1027q0 -86 43.5 -135t118.5 -49q74 0 117.5 48.5t43.5 135.5v69q0 85 -44.5 135.5t-116.5 50.5t-117 -50t-45 -136v-69z" />
<glyph unicode="&#xbb;" horiz-adv-x="1175" d="M159 160l361 400v6l-361 398h95l367 -399v-8l-358 -397h-104zM566 160l361 400v6l-361 398h94l367 -399v-8l-358 -397h-103z" />
<glyph unicode="&#xbc;" horiz-adv-x="1458" d="M88 1176v68l166 116h69v-628h-69v554h-3zM144 0l514 680l514 680h82l-514 -680l-513 -680h-83zM824 143v57q18 32 62 99t83 125t90.5 134.5t63.5 93.5h100v-451h93v-58h-93v-143h-65v143h-334zM897 201h261v392h-3q-41 -58 -133.5 -197.5t-124.5 -191.5v-3z" />
<glyph unicode="&#xbd;" horiz-adv-x="1458" d="M60 1176v68l166 116h69v-628h-69v554h-3zM116 0l514 680l514 680h82l-514 -680l-513 -680h-83zM917 469v4q0 76 53.5 130.5t152.5 54.5q93 0 149.5 -51t56.5 -127q0 -50 -26.5 -94t-82.5 -104l-209 -218v-3h330v-61h-423v47l259 278q80 84 80 152q0 52 -37 86t-99 34 q-65 0 -100.5 -36t-35.5 -88v-4h-68z" />
<glyph unicode="&#xbe;" horiz-adv-x="1458" d="M55 878h65q3 -44 45 -74t106 -30q71 0 114.5 36t43.5 92q0 57 -44.5 92.5t-114.5 35.5h-71v58h65q63 0 102 34.5t39 86.5q0 51 -37.5 83t-98.5 32q-60 0 -96.5 -30t-38.5 -70h-66q2 63 56 111t146 48t148 -47t56 -118q0 -60 -40 -102.5t-92 -51.5v-2q63 -8 109 -48 t46 -111q0 -82 -63.5 -134.5t-164.5 -52.5q-96 0 -154 47t-60 115zM201 0l514 680l514 680h82l-514 -680l-513 -680h-83zM908 143v57q23 40 81.5 129t129.5 194t87 129h101v-451h92v-58h-92v-143h-65v143h-334zM980 201h262v392h-4q-186 -269 -258 -388v-4z" />
<glyph unicode="&#xbf;" horiz-adv-x="879" d="M63 -35q0 104 51 179t153 152q95 73 126 129.5t31 131.5v89h81v-99q0 -90 -41 -157t-145 -147q-92 -70 -132 -130.5t-40 -144.5q0 -119 83.5 -183.5t207.5 -64.5q79 0 139.5 25.5t93.5 66.5t49.5 83t19.5 85h77q-6 -147 -107 -240t-278 -93q-103 0 -185.5 36t-133 109.5 t-50.5 172.5zM383 977q0 32 23 54.5t55 22.5t54.5 -22.5t22.5 -54.5t-22.5 -55t-54.5 -23t-55 23t-23 55z" />
<glyph unicode="&#xc0;" horiz-adv-x="1180" d="M60 0l487 1360h86l487 -1360h-87l-161 458h-567l-160 -458h-85zM317 1806h90l229 -294h-72zM329 528h519l-257 731h-4z" />
<glyph unicode="&#xc1;" horiz-adv-x="1180" d="M60 0l487 1360h86l487 -1360h-87l-161 458h-567l-160 -458h-85zM329 528h519l-257 731h-4zM544 1512l230 294h89l-247 -294h-72z" />
<glyph unicode="&#xc2;" horiz-adv-x="1180" d="M60 0l487 1360h86l487 -1360h-87l-161 458h-567l-160 -458h-85zM307 1512l258 228h44l258 -228h-92l-186 164h-4l-186 -164h-92zM329 528h519l-257 731h-4z" />
<glyph unicode="&#xc3;" horiz-adv-x="1180" d="M60 0l487 1360h86l487 -1360h-87l-161 458h-567l-160 -458h-85zM306 1509q0 78 40.5 122t109.5 44q43 0 79 -17.5t56.5 -38t50.5 -38t63 -17.5q89 0 91 111h61q0 -76 -39 -121t-113 -45q-45 0 -82 17.5t-57.5 38t-49.5 38t-60 17.5q-40 0 -64.5 -29.5t-24.5 -81.5h-61z M329 528h519l-257 731h-4z" />
<glyph unicode="&#xc4;" horiz-adv-x="1180" d="M60 0l487 1360h86l487 -1360h-87l-161 458h-567l-160 -458h-85zM329 528h519l-257 731h-4zM381 1574q0 28 18.5 46t44.5 18t44.5 -18t18.5 -46q0 -26 -18.5 -44.5t-44.5 -18.5t-44.5 18.5t-18.5 44.5zM670 1574q0 28 18 46t45 18t45 -18t18 -46q0 -26 -18 -44.5 t-45 -18.5q-26 0 -44.5 18.5t-18.5 44.5z" />
<glyph unicode="&#xc5;" horiz-adv-x="1180" d="M60 0l487 1360h86l487 -1360h-87l-161 458h-567l-160 -458h-85zM329 528h519l-257 731h-4zM416 1682q0 71 50.5 120t123.5 49q71 0 122.5 -49t51.5 -120q0 -72 -51.5 -122.5t-122.5 -50.5q-73 0 -123.5 50t-50.5 123zM472 1680q0 -48 35 -83t83 -35t82.5 35t34.5 83 q0 49 -34 83.5t-83 34.5q-48 0 -83 -34.5t-35 -83.5z" />
<glyph unicode="&#xc6;" horiz-adv-x="1823" d="M20 0l809 1360h886v-76h-691v-550h657v-75h-657v-584h691v-75h-773v486h-543l-290 -486h-89zM440 556h502v728h-68z" />
<glyph unicode="&#xc7;" horiz-adv-x="1245" d="M135 563v231q0 127 31.5 234.5t93 189t160 127.5t225.5 46q113 0 205.5 -38t148.5 -99t86.5 -133t30.5 -145v-3h-80q0 59 -26 118.5t-73.5 110t-124 82.5t-167.5 32q-106 0 -189 -40t-134.5 -110.5t-78 -162.5t-26.5 -200v-248q0 -109 26 -200.5t77.5 -162t135.5 -110 t194 -39.5q178 0 286.5 98t108.5 240h80v-3q0 -101 -49.5 -189.5t-150.5 -149.5t-236 -69l-48 -117q88 0 147 -38t59 -116q0 -83 -66 -126t-158 -45q-70 -1 -124 16v63q46 -16 120 -16q61 0 106 26t45 78q0 100 -152 100h-51v48l55 127q-125 4 -219.5 51t-152.5 128 t-86.5 185t-28.5 229z" />
<glyph unicode="&#xc8;" horiz-adv-x="1093" d="M190 0v1360h776v-76h-694v-550h660v-75h-660v-584h694v-75h-776zM303 1806h90l229 -294h-72z" />
<glyph unicode="&#xc9;" horiz-adv-x="1093" d="M190 0v1360h776v-76h-694v-550h660v-75h-660v-584h694v-75h-776zM530 1512l230 294h89l-247 -294h-72z" />
<glyph unicode="&#xca;" horiz-adv-x="1093" d="M190 0v1360h776v-76h-694v-550h660v-75h-660v-584h694v-75h-776zM296 1512l258 228h44l258 -228h-92l-186 164h-4l-186 -164h-92z" />
<glyph unicode="&#xcb;" horiz-adv-x="1093" d="M190 0v1360h776v-76h-694v-550h660v-75h-660v-584h694v-75h-776zM369 1574q0 28 18.5 46t44.5 18t44.5 -18t18.5 -46q0 -26 -18.5 -44.5t-44.5 -18.5t-44.5 18.5t-18.5 44.5zM658 1574q0 28 18 46t45 18t45 -18t18 -46q0 -26 -18 -44.5t-45 -18.5q-26 0 -44.5 18.5 t-18.5 44.5z" />
<glyph unicode="&#xcc;" horiz-adv-x="493" d="M-27 1806h90l229 -294h-72zM206 0v1360h81v-1360h-81z" />
<glyph unicode="&#xcd;" horiz-adv-x="493" d="M200 1512l230 294h89l-247 -294h-72zM206 0v1360h81v-1360h-81z" />
<glyph unicode="&#xce;" horiz-adv-x="502" d="M-32 1512l258 228h44l258 -228h-92l-186 164h-4l-186 -164h-92zM211 0v1360h81v-1360h-81z" />
<glyph unicode="&#xcf;" horiz-adv-x="494" d="M39 1574q0 28 18.5 46t44.5 18t44.5 -18t18.5 -46q0 -26 -18.5 -44.5t-44.5 -18.5t-44.5 18.5t-18.5 44.5zM207 0v1360h81v-1360h-81zM328 1574q0 28 18 46t45 18t45 -18t18 -46q0 -26 -18 -44.5t-45 -18.5q-26 0 -44.5 18.5t-18.5 44.5z" />
<glyph unicode="&#xd0;" horiz-adv-x="1353" d="M90 660v74h159v626h365q159 0 277.5 -48.5t190.5 -139.5t106.5 -213.5t34.5 -278.5q0 -124 -20.5 -226.5t-66.5 -187.5t-116.5 -143.5t-173 -90.5t-232.5 -32h-365v660h-159zM331 75h283q269 0 397.5 158.5t128.5 446.5q0 140 -30.5 249.5t-93.5 189.5t-164.5 122.5 t-237.5 42.5h-283v-550h360v-74h-360v-585z" />
<glyph unicode="&#xd1;" horiz-adv-x="1334" d="M190 0v1360h85l784 -1216h4v1216h80v-1360h-84l-784 1216h-4v-1216h-81zM383 1509q0 78 40.5 122t109.5 44q43 0 79 -17.5t56.5 -38t50.5 -38t63 -17.5q90 0 91 111h61q0 -76 -39 -121t-113 -45q-45 0 -82 17.5t-57.5 38t-49.5 38t-60 17.5q-40 0 -64.5 -29.5 t-24.5 -81.5h-61z" />
<glyph unicode="&#xd2;" horiz-adv-x="1310" d="M135 556v244q0 271 138 431t382 160t382 -160.5t138 -432.5v-242q0 -271 -138 -429t-383 -158t-382 158t-137 429zM216 550q0 -232 118 -369.5t321 -137.5t320.5 137.5t117.5 369.5v256q0 231 -118.5 370.5t-319.5 139.5t-320 -139.5t-119 -370.5v-256zM381 1806h90 l229 -294h-72z" />
<glyph unicode="&#xd3;" horiz-adv-x="1310" d="M135 556v244q0 271 138 431t382 160t382 -160.5t138 -432.5v-242q0 -271 -138 -429t-383 -158t-382 158t-137 429zM216 550q0 -232 118 -369.5t321 -137.5t320.5 137.5t117.5 369.5v256q0 231 -118.5 370.5t-319.5 139.5t-320 -139.5t-119 -370.5v-256zM608 1512l230 294 h89l-247 -294h-72z" />
<glyph unicode="&#xd4;" horiz-adv-x="1310" d="M135 556v244q0 271 138 431t382 160t382 -160.5t138 -432.5v-242q0 -271 -138 -429t-383 -158t-382 158t-137 429zM216 550q0 -232 118 -369.5t321 -137.5t320.5 137.5t117.5 369.5v256q0 231 -118.5 370.5t-319.5 139.5t-320 -139.5t-119 -370.5v-256zM372 1512l258 228 h44l258 -228h-92l-186 164h-4l-186 -164h-92z" />
<glyph unicode="&#xd5;" horiz-adv-x="1310" d="M135 556v244q0 271 138 431t382 160t382 -160.5t138 -432.5v-242q0 -271 -138 -429t-383 -158t-382 158t-137 429zM216 550q0 -232 118 -369.5t321 -137.5t320.5 137.5t117.5 369.5v256q0 231 -118.5 370.5t-319.5 139.5t-320 -139.5t-119 -370.5v-256zM370 1509 q0 78 40.5 122t109.5 44q43 0 79 -17.5t56.5 -38t50.5 -38t63 -17.5q89 0 91 111h61q0 -76 -39 -121t-113 -45q-45 0 -82 17.5t-57.5 38t-49.5 38t-60 17.5q-40 0 -64.5 -29.5t-24.5 -81.5h-61z" />
<glyph unicode="&#xd6;" horiz-adv-x="1310" d="M135 556v244q0 271 138 431t382 160t382 -160.5t138 -432.5v-242q0 -271 -138 -429t-383 -158t-382 158t-137 429zM216 550q0 -232 118 -369.5t321 -137.5t320.5 137.5t117.5 369.5v256q0 231 -118.5 370.5t-319.5 139.5t-320 -139.5t-119 -370.5v-256zM447 1574 q0 28 18.5 46t44.5 18t44.5 -18t18.5 -46q0 -26 -18.5 -44.5t-44.5 -18.5t-44.5 18.5t-18.5 44.5zM736 1574q0 28 18 46t45 18t45 -18t18 -46q0 -26 -18 -44.5t-45 -18.5q-26 0 -44.5 18.5t-18.5 44.5z" />
<glyph unicode="&#xd7;" d="M148 204l326 325l-326 327l51 50l326 -326l325 326l50 -50l-325 -327l325 -325l-51 -50l-324 325l-326 -325z" />
<glyph unicode="&#xd8;" horiz-adv-x="1309" d="M85 69l126 147q-76 141 -76 341v242q0 272 137.5 432t382.5 160q258 0 398 -181l118 139l52 -36l-133 -157q84 -147 84 -357v-242q0 -271 -137.5 -429.5t-382.5 -158.5q-270 0 -407 192l-112 -133zM216 550q0 -150 52 -265l731 860q-120 171 -345 171q-201 0 -319.5 -139 t-118.5 -371v-256zM301 225q120 -182 353 -182q203 0 321 137.5t118 369.5v256q0 161 -60 281z" />
<glyph unicode="&#xd9;" horiz-adv-x="1327" d="M177 464v896h81v-891q0 -195 106.5 -309t298.5 -114q193 0 299 113.5t106 309.5v891h82v-896q0 -226 -129 -360.5t-358 -134.5t-357.5 134.5t-128.5 360.5zM391 1806h90l229 -294h-72z" />
<glyph unicode="&#xda;" horiz-adv-x="1327" d="M177 464v896h81v-891q0 -195 106.5 -309t298.5 -114q193 0 299 113.5t106 309.5v891h82v-896q0 -226 -129 -360.5t-358 -134.5t-357.5 134.5t-128.5 360.5zM618 1512l230 294h89l-247 -294h-72z" />
<glyph unicode="&#xdb;" horiz-adv-x="1327" d="M177 464v896h81v-891q0 -195 106.5 -309t298.5 -114q193 0 299 113.5t106 309.5v891h82v-896q0 -226 -129 -360.5t-358 -134.5t-357.5 134.5t-128.5 360.5zM380 1512l258 228h44l258 -228h-92l-186 164h-4l-186 -164h-92z" />
<glyph unicode="&#xdc;" horiz-adv-x="1327" d="M177 464v896h81v-891q0 -195 106.5 -309t298.5 -114q193 0 299 113.5t106 309.5v891h82v-896q0 -226 -129 -360.5t-358 -134.5t-357.5 134.5t-128.5 360.5zM455 1574q0 28 18.5 46t44.5 18t44.5 -18t18.5 -46q0 -26 -18.5 -44.5t-44.5 -18.5t-44.5 18.5t-18.5 44.5z M744 1574q0 28 18 46t45 18t45 -18t18 -46q0 -26 -18 -44.5t-45 -18.5q-26 0 -44.5 18.5t-18.5 44.5z" />
<glyph unicode="&#xdd;" horiz-adv-x="1097" d="M39 1360h96l412 -668h5l413 668h94l-469 -751v-609h-81v607zM484 1512l230 294h89l-247 -294h-72z" />
<glyph unicode="&#xde;" horiz-adv-x="1131" d="M190 0v1360h82v-265h337q194 0 308.5 -94t114.5 -273t-114.5 -273t-308.5 -94h-337v-361h-82zM272 435h323q171 0 262 69t91 224q0 292 -342 292h-334v-585z" />
<glyph unicode="&#xdf;" horiz-adv-x="1149" d="M184 0v1069q0 167 96.5 261.5t278.5 94.5q177 0 277.5 -91.5t100.5 -241.5q0 -129 -80.5 -223.5t-175.5 -113.5v-5q67 -2 132.5 -25.5t121.5 -67t90.5 -114.5t34.5 -158q0 -97 -40.5 -176t-106 -127.5t-143.5 -74t-158 -25.5q-92 0 -170 16v76q67 -18 174 -18 q66 0 128.5 21t114.5 60t83.5 102.5t31.5 141.5q0 145 -113 233t-304 88h-93v84h85q123 0 213 90t90 206q0 132 -82 200t-210 68q-146 0 -220.5 -75t-74.5 -210v-1065h-81z" />
<glyph unicode="&#xe0;" horiz-adv-x="1014" d="M104 290q0 132 90.5 210t260.5 78h317v147q0 127 -73 190.5t-202 63.5q-233 0 -270 -204h-78q14 127 103 202t250 75t256 -81.5t95 -230.5v-740h-79v167h-4q-11 -28 -35.5 -57.5t-63 -59.5t-99 -49t-130.5 -19q-152 0 -245 83.5t-93 224.5zM189 292q0 -109 73.5 -173 t189.5 -64q134 0 227 81.5t93 210.5v160h-315q-134 0 -201 -58t-67 -157zM230 1495h91l229 -294h-72z" />
<glyph unicode="&#xe1;" horiz-adv-x="1014" d="M104 290q0 132 90.5 210t260.5 78h317v147q0 127 -73 190.5t-202 63.5q-233 0 -270 -204h-78q14 127 103 202t250 75t256 -81.5t95 -230.5v-740h-79v167h-4q-11 -28 -35.5 -57.5t-63 -59.5t-99 -49t-130.5 -19q-152 0 -245 83.5t-93 224.5zM189 292q0 -109 73.5 -173 t189.5 -64q134 0 227 81.5t93 210.5v160h-315q-134 0 -201 -58t-67 -157zM464 1201l230 294h90l-248 -294h-72z" />
<glyph unicode="&#xe2;" horiz-adv-x="1014" d="M104 290q0 132 90.5 210t260.5 78h317v147q0 127 -73 190.5t-202 63.5q-233 0 -270 -204h-78q14 127 103 202t250 75t256 -81.5t95 -230.5v-740h-79v167h-4q-11 -28 -35.5 -57.5t-63 -59.5t-99 -49t-130.5 -19q-152 0 -245 83.5t-93 224.5zM189 292q0 -109 73.5 -173 t189.5 -64q134 0 227 81.5t93 210.5v160h-315q-134 0 -201 -58t-67 -157zM245 1201l233 327h59l233 -327h-75l-186 266h-3l-187 -266h-74z" />
<glyph unicode="&#xe3;" horiz-adv-x="1014" d="M104 290q0 132 90.5 210t260.5 78h317v147q0 127 -73 190.5t-202 63.5q-233 0 -270 -204h-78q14 127 103 202t250 75t256 -81.5t95 -230.5v-740h-79v167h-4q-11 -28 -35.5 -57.5t-63 -59.5t-99 -49t-130.5 -19q-152 0 -245 83.5t-93 224.5zM189 292q0 -109 73.5 -173 t189.5 -64q134 0 227 81.5t93 210.5v160h-315q-134 0 -201 -58t-67 -157zM207 1214q0 93 44.5 147.5t118.5 54.5q39 0 70.5 -16.5t53 -39.5t41.5 -46t45.5 -39.5t54.5 -16.5q48 0 74 40.5t27 106.5h64q0 -90 -43.5 -148.5t-121.5 -58.5q-39 0 -71.5 16.5t-55 39.5t-43 46 t-44.5 39.5t-51 16.5q-43 0 -71 -38.5t-29 -103.5h-63z" />
<glyph unicode="&#xe4;" horiz-adv-x="1014" d="M104 290q0 132 90.5 210t260.5 78h317v147q0 127 -73 190.5t-202 63.5q-233 0 -270 -204h-78q14 127 103 202t250 75t256 -81.5t95 -230.5v-740h-79v167h-4q-11 -28 -35.5 -57.5t-63 -59.5t-99 -49t-130.5 -19q-152 0 -245 83.5t-93 224.5zM189 292q0 -109 73.5 -173 t189.5 -64q134 0 227 81.5t93 210.5v160h-315q-134 0 -201 -58t-67 -157zM293 1300q0 27 18.5 46t45.5 19t45.5 -19t18.5 -46t-18.5 -46t-45.5 -19t-45.5 19t-18.5 46zM592 1300q0 27 18.5 46t45.5 19t45.5 -19t18.5 -46t-18.5 -46t-45.5 -19t-45.5 19t-18.5 46z" />
<glyph unicode="&#xe5;" horiz-adv-x="1014" d="M104 290q0 132 90.5 210t260.5 78h317v147q0 127 -73 190.5t-202 63.5q-233 0 -270 -204h-78q14 127 103 202t250 75t256 -81.5t95 -230.5v-740h-79v167h-4q-11 -28 -35.5 -57.5t-63 -59.5t-99 -49t-130.5 -19q-152 0 -245 83.5t-93 224.5zM189 292q0 -109 73.5 -173 t189.5 -64q134 0 227 81.5t93 210.5v160h-315q-134 0 -201 -58t-67 -157zM333 1372q0 71 50.5 120t123.5 49q71 0 122.5 -49t51.5 -120q0 -72 -51.5 -122.5t-122.5 -50.5q-73 0 -123.5 50t-50.5 123zM389 1370q0 -48 35 -83t83 -35t82.5 35t34.5 83q0 49 -34 83.5t-83 34.5 q-48 0 -83 -34.5t-35 -83.5z" />
<glyph unicode="&#xe6;" horiz-adv-x="1701" d="M104 290q0 134 90.5 213t260.5 78h317v129q0 128 -74 198.5t-201 70.5q-233 0 -270 -204h-78q14 127 103 202t250 75q123 0 209.5 -55t119.5 -153h3q44 101 134.5 154.5t208.5 53.5q188 0 294.5 -127t106.5 -362v-53h-724v-53q0 -188 88.5 -294.5t245.5 -106.5 q69 0 125 19t90 50t53.5 65.5t24.5 70.5h83q-6 -47 -30.5 -93.5t-67.5 -89.5t-116 -69.5t-163 -26.5q-145 0 -240.5 69.5t-128.5 191.5h-4q-30 -114 -125.5 -187.5t-244.5 -73.5q-153 0 -246.5 83.5t-93.5 224.5zM189 292q0 -109 73.5 -173t189.5 -64q134 0 227 81.5 t93 210.5v163h-313q-135 0 -202.5 -58.5t-67.5 -159.5zM854 581h643v4q0 184 -86 289t-234 105t-235.5 -105t-87.5 -289v-4z" />
<glyph unicode="&#xe7;" horiz-adv-x="1032" d="M123 446v151q0 213 112 334t295 121q89 0 162 -28t119.5 -74t73 -100.5t29.5 -111.5h-79q-16 99 -95.5 169.5t-206.5 70.5q-150 0 -240 -103.5t-90 -289.5v-132q0 -189 90 -292.5t247 -103.5q133 0 207 65t91 157h78q-7 -53 -29.5 -100.5t-61.5 -90t-103 -70.5t-145 -34 l-52 -118q88 0 146 -38t58 -116q0 -83 -66 -126.5t-158 -44.5q-76 -1 -124 16v62q43 -15 120 -15q61 0 106 26t45 78q0 99 -150 99h-50v48l57 128q-179 8 -282.5 129.5t-103.5 333.5z" />
<glyph unicode="&#xe8;" horiz-adv-x="1050" d="M123 458v110q0 231 108 357.5t294 126.5t294.5 -126.5t108.5 -360.5v-55h-725v-51q0 -191 89.5 -297.5t244.5 -106.5q129 0 205 62t90 144h81q-7 -50 -33 -97.5t-70.5 -89t-116 -67t-158.5 -25.5q-193 0 -302.5 125.5t-109.5 350.5zM203 581h644v4q0 183 -87.5 288.5 t-234.5 105.5t-234.5 -105.5t-87.5 -288.5v-4zM248 1495h91l229 -294h-72z" />
<glyph unicode="&#xe9;" horiz-adv-x="1050" d="M123 458v110q0 231 108 357.5t294 126.5t294.5 -126.5t108.5 -360.5v-55h-725v-51q0 -191 89.5 -297.5t244.5 -106.5q129 0 205 62t90 144h81q-7 -50 -33 -97.5t-70.5 -89t-116 -67t-158.5 -25.5q-193 0 -302.5 125.5t-109.5 350.5zM203 581h644v4q0 183 -87.5 288.5 t-234.5 105.5t-234.5 -105.5t-87.5 -288.5v-4zM482 1201l230 294h90l-248 -294h-72z" />
<glyph unicode="&#xea;" horiz-adv-x="1050" d="M123 458v110q0 231 108 357.5t294 126.5t294.5 -126.5t108.5 -360.5v-55h-725v-51q0 -191 89.5 -297.5t244.5 -106.5q129 0 205 62t90 144h81q-7 -50 -33 -97.5t-70.5 -89t-116 -67t-158.5 -25.5q-193 0 -302.5 125.5t-109.5 350.5zM203 581h644v4q0 183 -87.5 288.5 t-234.5 105.5t-234.5 -105.5t-87.5 -288.5v-4zM263 1201l233 327h59l233 -327h-75l-186 266h-3l-187 -266h-74z" />
<glyph unicode="&#xeb;" horiz-adv-x="1050" d="M123 458v110q0 231 108 357.5t294 126.5t294.5 -126.5t108.5 -360.5v-55h-725v-51q0 -191 89.5 -297.5t244.5 -106.5q129 0 205 62t90 144h81q-7 -50 -33 -97.5t-70.5 -89t-116 -67t-158.5 -25.5q-193 0 -302.5 125.5t-109.5 350.5zM203 581h644v4q0 183 -87.5 288.5 t-234.5 105.5t-234.5 -105.5t-87.5 -288.5v-4zM311 1300q0 27 18.5 46t45.5 19t45.5 -19t18.5 -46t-18.5 -46t-45.5 -19t-45.5 19t-18.5 46zM610 1300q0 27 18.5 46t45.5 19t45.5 -19t18.5 -46t-18.5 -46t-45.5 -19t-45.5 19t-18.5 46z" />
<glyph unicode="&#xec;" horiz-adv-x="434" d="M-59 1495h91l229 -294h-72zM177 0v1035h80v-1035h-80z" />
<glyph unicode="&#xed;" horiz-adv-x="434" d="M175 1201l230 294h90l-248 -294h-72zM177 0v1035h80v-1035h-80z" />
<glyph unicode="&#xee;" horiz-adv-x="434" d="M-44 1201l233 327h59l233 -327h-75l-186 266h-3l-187 -266h-74zM177 0v1035h80v-1035h-80z" />
<glyph unicode="&#xef;" horiz-adv-x="434" d="M4 1300q0 27 18.5 46t45.5 19t45.5 -19t18.5 -46t-18.5 -46t-45.5 -19t-45.5 19t-18.5 46zM177 0v1035h80v-1035h-80zM303 1300q0 27 18.5 46t45.5 19t45.5 -19t18.5 -46t-18.5 -46t-45.5 -19t-45.5 19t-18.5 46z" />
<glyph unicode="&#xf0;" horiz-adv-x="1085" d="M123 442v95q0 216 116 339.5t301 123.5q119 0 206.5 -53.5t130.5 -136.5h5q0 1 -4 25.5t-5 27.5q-33 245 -160 393l-276 -99l-19 57l254 90q-45 49 -123.5 107.5t-154.5 95.5h130q128 -70 224 -176l247 89l17 -55l-224 -81q179 -243 179 -639v-204q0 -215 -116.5 -337 t-305.5 -122t-305.5 122.5t-116.5 337.5zM203 451q0 -189 94 -292t248 -103q152 0 246.5 102.5t94.5 292.5v139q0 143 -97.5 239.5t-244.5 96.5q-153 0 -247 -104t-94 -294v-77z" />
<glyph unicode="&#xf1;" horiz-adv-x="1107" d="M171 0v1035h80v-192h4q29 85 114.5 147t218.5 62q160 0 260 -99t100 -276v-677h-81v667q0 138 -77.5 224t-213.5 86q-104 0 -179.5 -50.5t-110.5 -127.5t-35 -168v-631h-80zM255 1214q0 93 44.5 147.5t118.5 54.5q39 0 70.5 -16.5t53 -39.5t41.5 -46t45.5 -39.5 t54.5 -16.5q48 0 74 40.5t27 106.5h64q0 -90 -43.5 -148.5t-121.5 -58.5q-39 0 -71.5 16.5t-55 39.5t-43 46t-44.5 39.5t-51 16.5q-43 0 -71 -38.5t-29 -103.5h-63z" />
<glyph unicode="&#xf2;" horiz-adv-x="1090" d="M123 442v147q0 217 116 340t305 123q186 0 304.5 -124.5t118.5 -338.5v-147q0 -215 -117.5 -337.5t-305.5 -122.5t-304.5 122.5t-116.5 337.5zM203 451q0 -189 94 -292t248 -103q152 0 246.5 102.5t94.5 292.5v130q0 188 -95 293t-247 105q-153 0 -247 -104t-94 -294 v-130zM268 1495h91l229 -294h-72z" />
<glyph unicode="&#xf3;" horiz-adv-x="1090" d="M123 442v147q0 217 116 340t305 123q186 0 304.5 -124.5t118.5 -338.5v-147q0 -215 -117.5 -337.5t-305.5 -122.5t-304.5 122.5t-116.5 337.5zM203 451q0 -189 94 -292t248 -103q152 0 246.5 102.5t94.5 292.5v130q0 188 -95 293t-247 105q-153 0 -247 -104t-94 -294 v-130zM502 1201l230 294h90l-248 -294h-72z" />
<glyph unicode="&#xf4;" horiz-adv-x="1090" d="M123 442v147q0 217 116 340t305 123q186 0 304.5 -124.5t118.5 -338.5v-147q0 -215 -117.5 -337.5t-305.5 -122.5t-304.5 122.5t-116.5 337.5zM203 451q0 -189 94 -292t248 -103q152 0 246.5 102.5t94.5 292.5v130q0 188 -95 293t-247 105q-153 0 -247 -104t-94 -294 v-130zM283 1201l233 327h59l233 -327h-75l-186 266h-3l-187 -266h-74z" />
<glyph unicode="&#xf5;" horiz-adv-x="1090" d="M123 442v147q0 217 116 340t305 123q186 0 304.5 -124.5t118.5 -338.5v-147q0 -215 -117.5 -337.5t-305.5 -122.5t-304.5 122.5t-116.5 337.5zM203 451q0 -189 94 -292t248 -103q152 0 246.5 102.5t94.5 292.5v130q0 188 -95 293t-247 105q-153 0 -247 -104t-94 -294 v-130zM245 1214q0 93 44.5 147.5t118.5 54.5q39 0 70.5 -16.5t53 -39.5t41.5 -46t45.5 -39.5t54.5 -16.5q48 0 74 40.5t27 106.5h64q0 -90 -43.5 -148.5t-121.5 -58.5q-39 0 -71.5 16.5t-55 39.5t-43 46t-44.5 39.5t-51 16.5q-43 0 -71 -38.5t-29 -103.5h-63z" />
<glyph unicode="&#xf6;" horiz-adv-x="1090" d="M123 442v147q0 217 116 340t305 123q186 0 304.5 -124.5t118.5 -338.5v-147q0 -215 -117.5 -337.5t-305.5 -122.5t-304.5 122.5t-116.5 337.5zM203 451q0 -189 94 -292t248 -103q152 0 246.5 102.5t94.5 292.5v130q0 188 -95 293t-247 105q-153 0 -247 -104t-94 -294 v-130zM331 1300q0 27 18.5 46t45.5 19t45.5 -19t18.5 -46t-18.5 -46t-45.5 -19t-45.5 19t-18.5 46zM630 1300q0 27 18.5 46t45.5 19t45.5 -19t18.5 -46t-18.5 -46t-45.5 -19t-45.5 19t-18.5 46z" />
<glyph unicode="&#xf7;" d="M77 504v75h894v-75h-894zM447 182q0 33 22.5 55.5t54.5 22.5t55 -22.5t23 -55.5q0 -32 -23 -54.5t-55 -22.5t-54.5 22.5t-22.5 54.5zM447 901q0 33 22.5 55.5t54.5 22.5t55 -22.5t23 -55.5q0 -32 -23 -54.5t-55 -22.5t-54.5 22.5t-22.5 54.5z" />
<glyph unicode="&#xf8;" horiz-adv-x="1090" d="M85 19l115 136q-77 114 -77 287v147q0 217 116 340t305 123q193 0 307 -132l124 143l48 -39l-132 -151q76 -116 76 -284v-147q0 -215 -117.5 -337.5t-305.5 -122.5q-191 0 -303 124l-107 -126zM203 451q0 -135 51 -229l547 637q-91 120 -257 120q-153 0 -247 -104 t-94 -294v-130zM291 168q91 -112 254 -112q152 0 246.5 102.5t94.5 292.5v130q0 132 -48 225z" />
<glyph unicode="&#xf9;" horiz-adv-x="1105" d="M159 335v700h81v-685q0 -137 77.5 -215t207.5 -78q77 0 140.5 29.5t104 79.5t62.5 114t22 134v621h81v-1035h-81v192h-4q-31 -84 -116.5 -147t-220.5 -63q-157 0 -255.5 90.5t-98.5 262.5zM275 1495h91l229 -294h-72z" />
<glyph unicode="&#xfa;" horiz-adv-x="1105" d="M159 335v700h81v-685q0 -137 77.5 -215t207.5 -78q77 0 140.5 29.5t104 79.5t62.5 114t22 134v621h81v-1035h-81v192h-4q-31 -84 -116.5 -147t-220.5 -63q-157 0 -255.5 90.5t-98.5 262.5zM509 1201l230 294h90l-248 -294h-72z" />
<glyph unicode="&#xfb;" horiz-adv-x="1105" d="M159 335v700h81v-685q0 -137 77.5 -215t207.5 -78q77 0 140.5 29.5t104 79.5t62.5 114t22 134v621h81v-1035h-81v192h-4q-31 -84 -116.5 -147t-220.5 -63q-157 0 -255.5 90.5t-98.5 262.5zM290 1201l233 327h59l233 -327h-75l-186 266h-3l-187 -266h-74z" />
<glyph unicode="&#xfc;" horiz-adv-x="1105" d="M159 335v700h81v-685q0 -137 77.5 -215t207.5 -78q77 0 140.5 29.5t104 79.5t62.5 114t22 134v621h81v-1035h-81v192h-4q-31 -84 -116.5 -147t-220.5 -63q-157 0 -255.5 90.5t-98.5 262.5zM338 1300q0 27 18.5 46t45.5 19t45.5 -19t18.5 -46t-18.5 -46t-45.5 -19 t-45.5 19t-18.5 46zM637 1300q0 27 18.5 46t45.5 19t45.5 -19t18.5 -46t-18.5 -46t-45.5 -19t-45.5 19t-18.5 46z" />
<glyph unicode="&#xfd;" horiz-adv-x="920" d="M35 1035h90l337 -946h4l333 946h86l-373 -1036l-44 -116q-44 -116 -103.5 -170t-168.5 -54q-48 0 -95 9v73q40 -9 88 -9q80 0 126 40.5t73 118.5l34 96zM417 1201l230 294h90l-248 -294h-72z" />
<glyph unicode="&#xfe;" horiz-adv-x="1105" d="M168 -335v1770h80v-599h4q14 37 40 72.5t65 69t98 54t127 20.5q169 0 285.5 -118.5t116.5 -332.5v-169q0 -205 -113 -327.5t-290 -122.5q-74 0 -135.5 23.5t-100 60.5t-60 68.5t-33.5 60.5h-4v-530h-80zM247 441q0 -160 89 -272.5t242 -112.5q142 0 233.5 102.5 t91.5 283.5v149q0 188 -93.5 288t-232.5 100q-148 0 -239 -109.5t-91 -275.5v-153z" />
<glyph unicode="&#xff;" horiz-adv-x="920" d="M35 1035h90l337 -946h4l333 946h86l-373 -1036l-44 -116q-44 -116 -103.5 -170t-168.5 -54q-48 0 -95 9v73q40 -9 88 -9q80 0 126 40.5t73 118.5l34 96zM246 1300q0 27 18.5 46t45.5 19t45.5 -19t18.5 -46t-18.5 -46t-45.5 -19t-45.5 19t-18.5 46zM545 1300q0 27 18.5 46 t45.5 19t45.5 -19t18.5 -46t-18.5 -46t-45.5 -19t-45.5 19t-18.5 46z" />
<glyph unicode="&#x152;" horiz-adv-x="1975" d="M135 556v244q0 272 135 431.5t378 159.5q149 0 261.5 -66.5t163.5 -178.5h6v214h774v-76h-692v-550h657v-75h-657v-584h692v-75h-774v222h-6q-59 -121 -167.5 -187t-258.5 -66q-244 0 -378 157.5t-134 429.5zM216 550q0 -232 115 -369.5t316 -137.5q195 0 313.5 131 t118.5 337v343q0 200 -117 331t-315 131q-200 0 -315.5 -139t-115.5 -371v-256z" />
<glyph unicode="&#x153;" horiz-adv-x="1809" d="M120 434v163q0 215 118 335t305 120q128 0 229.5 -63.5t149.5 -184.5h5q43 120 137.5 184t224.5 64q184 0 292.5 -127t108.5 -360v-55h-725v-51q0 -192 89.5 -298t244.5 -106q129 0 205 62t90 144h81q-7 -50 -33 -97.5t-70 -89t-115.5 -67t-158.5 -25.5q-135 0 -231 63 t-140 180h-5q-48 -117 -149.5 -180t-232.5 -63q-183 0 -301.5 118.5t-118.5 333.5zM201 445q0 -186 94 -287.5t248 -101.5q152 0 246 101t94 288v141q0 185 -95.5 289t-245.5 104q-151 0 -246 -103t-95 -290v-141zM965 581h644v4q0 183 -87.5 288.5t-234.5 105.5 t-234.5 -105.5t-87.5 -288.5v-4z" />
<glyph unicode="&#x178;" horiz-adv-x="1097" d="M39 1360h96l412 -668h5l413 668h94l-469 -751v-609h-81v607zM340 1574q0 28 18 46t45 18t45 -18t18 -46q0 -26 -18.5 -44.5t-44.5 -18.5t-44.5 18.5t-18.5 44.5zM629 1574q0 28 18.5 46t44.5 18q27 0 45 -18t18 -46q0 -26 -18 -44.5t-45 -18.5q-26 0 -44.5 18.5 t-18.5 44.5z" />
<glyph unicode="&#x2c6;" horiz-adv-x="805" d="M140 1201l233 327h59l233 -327h-75l-186 266h-3l-187 -266h-74z" />
<glyph unicode="&#x2dc;" horiz-adv-x="805" d="M97 1214q0 93 44.5 147.5t118.5 54.5q39 0 70.5 -16.5t53 -39.5t41.5 -46t45.5 -39.5t54.5 -16.5q48 0 74 40.5t27 106.5h64q0 -90 -43.5 -148.5t-121.5 -58.5q-39 0 -71.5 16.5t-55 39.5t-43 46t-44.5 39.5t-51 16.5q-43 0 -71 -38.5t-29 -103.5h-63z" />
<glyph unicode="&#x2000;" horiz-adv-x="925" />
<glyph unicode="&#x2001;" horiz-adv-x="1851" />
<glyph unicode="&#x2002;" horiz-adv-x="925" />
<glyph unicode="&#x2003;" horiz-adv-x="1851" />
<glyph unicode="&#x2004;" horiz-adv-x="617" />
<glyph unicode="&#x2005;" horiz-adv-x="462" />
<glyph unicode="&#x2006;" horiz-adv-x="308" />
<glyph unicode="&#x2007;" horiz-adv-x="308" />
<glyph unicode="&#x2008;" horiz-adv-x="231" />
<glyph unicode="&#x2009;" horiz-adv-x="370" />
<glyph unicode="&#x200a;" horiz-adv-x="102" />
<glyph unicode="&#x2010;" horiz-adv-x="762" d="M66 525v73h630v-73h-630z" />
<glyph unicode="&#x2011;" horiz-adv-x="762" d="M66 525v73h630v-73h-630z" />
<glyph unicode="&#x2012;" horiz-adv-x="762" d="M66 525v73h630v-73h-630z" />
<glyph unicode="&#x2013;" horiz-adv-x="1101" d="M0 526v74h1101v-74h-1101z" />
<glyph unicode="&#x2014;" horiz-adv-x="2048" d="M0 525v73h2048v-73h-2048z" />
<glyph unicode="&#x2018;" horiz-adv-x="412" d="M134 962l85 398h69l-64 -398h-90z" />
<glyph unicode="&#x2019;" horiz-adv-x="419" d="M140 962l57 398h89l-77 -398h-69z" />
<glyph unicode="&#x201a;" horiz-adv-x="423" d="M140 -318l61 380h89l-84 -380h-66z" />
<glyph unicode="&#x201c;" horiz-adv-x="659" d="M124 959l87 401h66l-63 -401h-90zM385 959l84 401h66l-60 -401h-90z" />
<glyph unicode="&#x201d;" horiz-adv-x="665" d="M124 960l60 400h90l-85 -400h-65zM390 960l62 400h90l-86 -400h-66z" />
<glyph unicode="&#x201e;" horiz-adv-x="665" d="M124 -296l60 400h90l-85 -400h-65zM390 -296l62 400h90l-86 -400h-66z" />
<glyph unicode="&#x2022;" horiz-adv-x="941" d="M266 592q0 85 59.5 144.5t144.5 59.5q84 0 144 -59.5t60 -144.5q0 -84 -60 -144t-144 -60q-85 0 -144.5 60t-59.5 144z" />
<glyph unicode="&#x2026;" horiz-adv-x="1316" d="M139 62q0 32 22.5 55t54.5 23t55 -23t23 -55t-23 -54.5t-55 -22.5t-54.5 22.5t-22.5 54.5zM578 62q0 32 22.5 55t54.5 23t55 -23t23 -55t-23 -54.5t-55 -22.5t-54.5 22.5t-22.5 54.5zM1017 62q0 32 23 55t55 23t55 -23t23 -55t-23 -54.5t-55 -22.5t-55 22.5t-23 54.5z " />
<glyph unicode="&#x202f;" horiz-adv-x="370" />
<glyph unicode="&#x2039;" horiz-adv-x="761" d="M127 557v8l366 399h95l-361 -398v-6l361 -400h-104z" />
<glyph unicode="&#x203a;" horiz-adv-x="760" d="M161 160l361 400v6l-361 398h95l367 -399v-8l-358 -397h-104z" />
<glyph unicode="&#x205f;" horiz-adv-x="462" />
<glyph unicode="&#x20ac;" horiz-adv-x="1092" d="M51 489v70h147v230h-147v70h149q3 263 111.5 397.5t308.5 134.5q86 0 156 -26.5t115.5 -70.5t76 -103.5t43.5 -122.5t13 -131h-81q0 105 -32.5 188.5t-107 137t-182.5 53.5q-168 0 -252.5 -118.5t-86.5 -338.5h412v-70h-414v-230h414v-70h-412q2 -224 91.5 -333 t249.5 -109q81 0 144 31t99.5 82.5t54.5 113t18 129.5h82q0 -59 -12.5 -117t-43 -116t-75 -101.5t-114 -70.5t-154.5 -27q-193 0 -306 127.5t-116 390.5h-149z" />
<glyph unicode="&#x2122;" horiz-adv-x="1700" d="M115 1303v60h579v-60h-256v-605h-67v605h-256zM836 698v665h65l272 -529h1l267 529h65v-665h-63v526h-3l-241 -476h-51l-245 476h-2v-526h-65z" />
<glyph unicode="&#x25fc;" horiz-adv-x="1035" d="M0 0v1035h1035v-1035h-1035z" />
<glyph unicode="&#xfb01;" horiz-adv-x="1052" d="M54 964v71h164v136q0 138 66 198.5t198 60.5q34 0 80 -7v-70q-37 5 -75 5q-98 0 -143 -43t-45 -147v-133h257v-71h-257v-964h-81v964h-164zM765 1307q0 30 20.5 51t50.5 21t51 -21t21 -51t-21 -50.5t-51 -20.5t-50.5 20.5t-20.5 50.5zM796 0v1035h80v-1035h-80z" />
<glyph unicode="&#xfb02;" horiz-adv-x="1066" d="M54 964v71h164v136q0 138 66 198.5t198 60.5q34 0 80 -7v-70q-37 5 -75 5q-98 0 -143 -43t-45 -147v-133h257v-71h-257v-964h-81v964h-164zM801 0v1435h81v-1435h-81z" />
</font>
</defs>
</svg>
