<?xml version="1.0" standalone="no"?>
<!DOCTYPE svg PUBLIC "-//W3C//DTD SVG 1.1//EN" "http://www.w3.org/Graphics/SVG/1.1/DTD/svg11.dtd" >
<svg xmlns="http://www.w3.org/2000/svg" xmlns:xlink="http://www.w3.org/1999/xlink" version="1.1">
<metadata></metadata>
<defs>
<font id="san_francisco_displaymedium" horiz-adv-x="1158" >
<font-face units-per-em="2048" ascent="1638" descent="-410" />
<missing-glyph horiz-adv-x="408" />
<glyph horiz-adv-x="0" />
<glyph unicode="&#xd;" horiz-adv-x="0" />
<glyph unicode=" "  horiz-adv-x="408" />
<glyph unicode="&#x09;" horiz-adv-x="408" />
<glyph unicode="&#xa0;" horiz-adv-x="408" />
<glyph unicode="!" horiz-adv-x="530" d="M138 103q0 52 37 87t90 35t90 -35t37 -87t-37 -87t-90 -35t-90 35t-37 87zM152 1365h226l-25 -956h-176z" />
<glyph unicode="&#x22;" horiz-adv-x="810" d="M137 1365h191l-24 -445h-143zM484 1365h191l-24 -445h-143z" />
<glyph unicode="#" horiz-adv-x="1203" d="M53 382l31 156h203l61 302h-192l30 154h194l74 371h160l-76 -371h270l74 371h158l-75 -371h214l-30 -154h-215l-62 -302h204l-31 -156h-205l-77 -382h-158l77 382h-268l-78 -382h-158l76 382h-201zM436 530h283l65 317h-283z" />
<glyph unicode="$" d="M84 380h184q6 -89 69.5 -148.5t177.5 -74.5v472l-78 20q-65 16 -119.5 43t-101 69t-73 104t-26.5 139q0 112 53.5 195.5t141 127.5t201.5 55v131h138v-131q172 -16 283.5 -115.5t116.5 -256.5h-181q-3 82 -62 141t-158 72v-444l80 -20q168 -42 256 -128t88 -241 q0 -174 -116.5 -274.5t-307.5 -116.5v-128h-137v126q-208 16 -317.5 124.5t-111.5 258.5zM301 1018q0 -128 162 -189q30 -11 52 -17v411q-96 -12 -155 -64.5t-59 -140.5zM650 156q109 9 174.5 66.5t65.5 153.5q0 78 -47.5 129t-162.5 86q-5 1 -15 3.5t-15 3.5v-442z" />
<glyph unicode="%" horiz-adv-x="1518" d="M75 1018v28q0 142 76.5 237t206.5 95t206.5 -95t76.5 -240v-28q0 -142 -77 -238.5t-209 -96.5q-130 0 -205 96t-75 242zM157 0l534 695l510 670h166l-529 -690l-514 -675h-167zM215 1028q0 -101 37.5 -161t104.5 -60t105 59.5t38 158.5v9q0 100 -37 159t-105 59 q-69 0 -106 -60t-37 -156v-8zM877 326v28q0 141 76.5 236.5t206.5 95.5t206.5 -95t76.5 -240v-27q0 -142 -76.5 -239t-208.5 -97q-130 0 -205.5 96t-75.5 242zM1018 336q0 -100 37.5 -160.5t104.5 -60.5q66 0 104 59.5t38 159.5v8q0 99 -37 158.5t-104 59.5q-69 0 -106 -60 t-37 -156v-8z" />
<glyph unicode="&#x26;" horiz-adv-x="1316" d="M78 358q0 126 69 215t194 158q41 21 53 27q-81 85 -124.5 157t-43.5 156q0 130 101 218t255 88q150 0 252 -85t102 -222q0 -61 -22 -113t-64.5 -94.5t-88.5 -74.5t-111 -66l312 -339q59 111 59 343v49h178v-54q0 -300 -112 -467l241 -254h-241l-118 127 q-91 -80 -203.5 -117t-225.5 -37q-202 0 -332 104.5t-130 280.5zM272 372q0 -115 83 -178t203 -63q80 0 162 29.5t137 87.5l-361 397l-19 -9.5t-23 -12.5q-89 -49 -135.5 -108t-46.5 -143zM409 1060q0 -52 30.5 -103.5t108.5 -129.5q104 53 156 105.5t52 129.5 q0 75 -49 121.5t-124 46.5q-77 0 -125.5 -47.5t-48.5 -122.5z" />
<glyph unicode="'" horiz-adv-x="418" d="M114 1365h191l-24 -445h-143z" />
<glyph unicode="(" horiz-adv-x="635" d="M127 566q0 127 17 238t40.5 187.5t62.5 152t69 119t75 100.5h174q-35 -40 -71 -104t-75.5 -161.5t-64 -237t-24.5 -292.5q0 -124 17.5 -240.5t38.5 -194.5t59.5 -166t59 -125.5t58.5 -103.5h-182q-46 56 -85.5 125t-80 170.5t-64.5 239.5t-24 293z" />
<glyph unicode=")" horiz-adv-x="635" d="M69 1363h173q45 -57 75 -100t70 -119t63.5 -152.5t40.5 -187.5t17 -238q0 -155 -24.5 -293t-66 -239.5t-81 -170t-85.5 -125.5h-180q39 67 58.5 103.5t58.5 125.5t59.5 166t38 194t17.5 241q0 153 -24.5 292.5t-64 237t-75 161.5t-70.5 104z" />
<glyph unicode="*" horiz-adv-x="930" d="M152 958l211 100l-211 99l70 123l195 -140l-20 239h137l-21 -238l196 139l69 -122l-212 -100l212 -100l-69 -121l-195 135l20 -235h-137l19 235l-194 -135z" />
<glyph unicode="+" horiz-adv-x="1114" d="M69 463v169h403v417h169v-417h405v-169h-405v-438h-169v438h-403z" />
<glyph unicode="," horiz-adv-x="437" d="M25 -238l108 424h207l-166 -424h-149z" />
<glyph unicode="-" horiz-adv-x="787" d="M78 470v180h630v-180h-630z" />
<glyph unicode="." horiz-adv-x="499" d="M122 108q0 53 37.5 91t90.5 38t91 -38t38 -91t-38 -90.5t-91 -37.5q-52 0 -90 38t-38 90z" />
<glyph unicode="/" horiz-adv-x="689" d="M10 -302l490 1739h179l-489 -1739h-180z" />
<glyph unicode="0" horiz-adv-x="1167" d="M91 630v103q0 305 129.5 482.5t364.5 177.5q236 0 363.5 -177t127.5 -483v-103q0 -301 -128 -479.5t-365 -178.5q-235 0 -363.5 177t-128.5 481zM296 632q0 -232 76.5 -358.5t211.5 -126.5q134 0 210.5 126.5t76.5 358.5v100q0 232 -76.5 359t-210.5 127 q-135 0 -211.5 -127t-76.5 -359v-100z" />
<glyph unicode="1" horiz-adv-x="817" d="M104 957v201q63 45 166 108.5t168 98.5h194v-1365h-204v1157h-5q-44 -24 -152.5 -92t-166.5 -108z" />
<glyph unicode="2" horiz-adv-x="1118" d="M109 978v9q0 79 28.5 151t82.5 129.5t139.5 91.5t191.5 34q196 0 316.5 -106.5t120.5 -270.5q0 -26 -4 -51.5t-7.5 -46t-16 -47t-18.5 -41t-25.5 -43t-26 -39t-32 -42t-31.5 -38.5t-37 -42.5t-36 -41.5l-349 -405v-4h609v-175h-894v129l506 574q36 41 56.5 66.5t47 65.5 t39 81t12.5 84q0 99 -66 160t-168 61q-109 0 -174.5 -68.5t-65.5 -165.5q0 -1 1 -5v-4h-199z" />
<glyph unicode="3" horiz-adv-x="1140" d="M88 362h192q13 -98 82.5 -159t191.5 -61q134 0 210.5 67.5t74.5 175.5q-2 106 -77.5 170t-208.5 64h-142v170h134q110 0 179 62t69 160q-1 95 -66.5 154t-173.5 59q-112 0 -172 -63t-67 -147h-195q2 73 31 140t82 121t137 86t187 32q193 0 315.5 -99.5t126.5 -250.5 q3 -134 -76.5 -223.5t-170.5 -103.5v-5q37 -3 76 -16.5t78 -41t70 -64.5t51 -91t21 -118q3 -177 -140 -293t-359 -116q-218 0 -336 111t-124 280z" />
<glyph unicode="4" horiz-adv-x="1177" d="M85 273v173q228 416 562 919h295v-917h175v-175h-175v-273h-195v273h-662zM282 448h465v748h-5q-248 -368 -460 -746v-2z" />
<glyph unicode="5" horiz-adv-x="1194" d="M129 351h195q15 -99 89.5 -153.5t188.5 -54.5q52 0 102 20t92 56.5t67.5 95t25.5 128.5q0 134 -81.5 215.5t-203.5 81.5q-108 0 -178 -49.5t-103 -120.5h-177l71 797h776v-174h-606l-42 -404h5q31 42 111.5 79.5t182.5 37.5q122 0 224.5 -55.5t164.5 -161t62 -239.5 q0 -212 -143 -345t-360 -133q-209 0 -331 109t-132 270z" />
<glyph unicode="6" horiz-adv-x="1145" d="M87 637q0 367 142 560t379 193q95 0 175 -31t131.5 -81.5t82.5 -111.5t36 -125h-201q-7 66 -68.5 122.5t-162.5 56.5q-137 0 -224 -135t-93 -395h6q32 81 121.5 140.5t213.5 59.5q85 0 163.5 -30t141.5 -84.5t100.5 -141t37.5 -191.5q0 -216 -136 -343t-342 -127 q-233 0 -368 168.5t-135 495.5zM312 432q0 -135 81.5 -211.5t198.5 -76.5q116 0 196 75t80 214q0 70 -23.5 126.5t-63 91.5t-88 53.5t-102.5 18.5q-118 0 -198.5 -78t-80.5 -213z" />
<glyph unicode="7" horiz-adv-x="1087" d="M89 1190v175h890v-181l-557 -1184h-216l574 1186v4h-691z" />
<glyph unicode="8" horiz-adv-x="1189" d="M97 373q0 62 18 116t46.5 91.5t66.5 66.5t75 45.5t74 25.5v4q-90 29 -157.5 107t-67.5 200q0 159 124.5 261.5t318.5 102.5q195 0 319.5 -102.5t124.5 -261.5q0 -64 -21 -119t-56 -91.5t-72 -60t-77 -36.5v-4q48 -11 94 -36t89 -65.5t69 -103.5t26 -139 q0 -177 -140 -289.5t-360 -112.5t-357 111.5t-137 289.5zM300 383q0 -110 84 -179.5t211 -69.5t210.5 69.5t83.5 179.5q0 111 -83.5 181t-210.5 70t-211 -70t-84 -181zM350 1012q0 -98 69.5 -160t175.5 -62q107 0 176 62t69 160q0 96 -69 156.5t-176 60.5t-176 -60.5 t-69 -156.5z" />
<glyph unicode="9" horiz-adv-x="1145" d="M90 925q0 107 39 196.5t104 147.5t149.5 90t176.5 32q242 0 376.5 -166.5t134.5 -518.5q0 -344 -138 -537.5t-384 -193.5q-84 0 -156 22t-122.5 58.5t-87.5 84t-56 98t-22 101.5h200q10 -76 76.5 -135t175.5 -59q153 0 235 144.5t81 385.5h-9q-30 -84 -120.5 -142 t-225.5 -58q-83 0 -159 29.5t-136.5 84.5t-96 142t-35.5 194zM290 930q0 -139 78.5 -214t195.5 -75q116 0 199.5 80.5t83.5 203.5q0 142 -78.5 219t-199.5 77q-115 0 -197 -76t-82 -215z" />
<glyph unicode=":" horiz-adv-x="537" d="M137 108q0 53 38 91t91 38t90.5 -38t37.5 -91q0 -52 -38 -90t-90 -38q-53 0 -91 37.5t-38 90.5zM137 809q0 53 38 91t91 38t90.5 -38t37.5 -91t-38 -90.5t-90 -37.5q-53 0 -91 37.5t-38 90.5z" />
<glyph unicode=";" horiz-adv-x="537" d="M55 -254l107 444h208l-166 -444h-149zM139 809q0 53 37.5 91t90.5 38t91 -38t38 -91t-38 -90.5t-91 -37.5t-90.5 37.5t-37.5 90.5z" />
<glyph unicode="&#x3c;" horiz-adv-x="1114" d="M118 440v151l876 514v-209l-655 -369v-10l655 -351v-208z" />
<glyph unicode="=" horiz-adv-x="1114" d="M124 274v161h866v-161h-866zM124 658v163h866v-163h-866z" />
<glyph unicode="&#x3e;" horiz-adv-x="1114" d="M118 -42v208l657 351v10l-657 369v209l877 -514v-151z" />
<glyph unicode="?" horiz-adv-x="956" d="M59 1000q-1 86 23.5 155t66 113.5t98 74t115.5 41.5t122 12q111 0 202.5 -37t151 -118t59.5 -194q0 -60 -15.5 -109.5t-48 -90t-59 -64.5t-72.5 -60q-68 -53 -95 -78t-45 -64t-18 -95v-58h-191l-1 78q-2 68 25.5 128t65 98.5t96.5 83.5q44 34 64.5 51.5t45 45.5t33.5 57 t9 66q0 96 -62 144t-155 48q-108 0 -166 -63.5t-59 -164.5h-190zM326 103q0 52 37 87t90 35t90 -35t37 -87t-37 -87t-90 -35t-90 35t-37 87z" />
<glyph unicode="@" horiz-adv-x="1682" d="M92 486v57q0 173 58 318t160.5 243.5t244.5 153.5t307 55h8q172 0 313.5 -56t231.5 -151t139 -215.5t49 -253.5v-50q0 -204 -97.5 -329t-251.5 -125q-98 0 -160 41t-75 99h-10q-15 -55 -77 -97.5t-145 -42.5q-125 0 -195.5 89t-70.5 239v97q0 145 72.5 234t200.5 89 q82 0 134 -39.5t68 -91.5h8v116h154v-490q0 -55 32.5 -85t84.5 -30q76 0 128.5 86t52.5 251v34q0 110 -40 208.5t-112.5 174.5t-185 120.5t-248.5 44.5h-8q-132 0 -245.5 -45t-196.5 -127t-130 -203.5t-47 -267.5v-45q0 -155 49 -277t134 -197t194 -114t235 -39h8 q203 0 314 49v-136q-99 -46 -317 -46h-9q-160 0 -296.5 48.5t-240.5 140.5t-163 237t-59 328zM684 483q0 -109 41.5 -160t115.5 -51q71 0 113 49t42 153v81q0 94 -44.5 145t-112.5 51q-69 0 -112 -52.5t-43 -154.5v-61z" />
<glyph unicode="A" horiz-adv-x="1219" d="M22 0l476 1365h223l476 -1365h-221l-127 391h-490l-128 -391h-209zM408 551h392l-192 590h-7z" />
<glyph unicode="B" horiz-adv-x="1234" d="M158 0v1365h531q175 0 281 -89.5t106 -246.5q0 -120 -60.5 -196t-163.5 -105v-9q139 -17 219 -106t80 -230q0 -182 -131.5 -282.5t-344.5 -100.5h-517zM363 169h225q82 0 142.5 9.5t110 33t75 67.5t25.5 109q0 114 -73 173.5t-200 59.5h-305v-452zM363 784h199 q155 0 231.5 50.5t76.5 159.5q0 101 -60.5 151.5t-160.5 50.5h-286v-412z" />
<glyph unicode="C" horiz-adv-x="1258" d="M103 592v174q0 300 146.5 463.5t400.5 163.5q121 0 221 -40t162.5 -106t96.5 -149t34 -172v-10h-201q0 56 -20.5 108.5t-58.5 95t-98.5 68t-134.5 25.5q-157 0 -249 -114t-92 -335v-171q0 -222 91.5 -331.5t253.5 -109.5q146 0 227 80t81 197h201v-11q0 -64 -19.5 -126.5 t-61.5 -120.5t-101.5 -102t-145.5 -70.5t-187 -26.5q-256 0 -401 160.5t-145 459.5z" />
<glyph unicode="D" horiz-adv-x="1303" d="M158 0v1365h457q129 0 231.5 -33t171.5 -91.5t114.5 -144.5t66 -187.5t20.5 -224.5q0 -121 -19.5 -222t-64.5 -188t-114 -147t-172 -93.5t-234 -33.5h-457zM364 177h233q207 0 308 125t101 379q0 118 -22 209t-69.5 159t-127 103.5t-190.5 35.5h-233v-1011z" />
<glyph unicode="E" horiz-adv-x="1107" d="M158 0v1365h838v-177h-633v-408h597v-170h-597v-433h633v-177h-838z" />
<glyph unicode="F" horiz-adv-x="1042" d="M158 0v1365h827v-178h-621v-437h569v-176h-569v-574h-206z" />
<glyph unicode="G" horiz-adv-x="1283" d="M103 595v183q0 287 151 451t408 164q119 0 216.5 -37t160 -100.5t98 -143.5t40.5 -170h-203q-16 133 -103.5 202t-212.5 69q-154 0 -251.5 -108.5t-97.5 -327.5v-182q0 -208 88 -326t259 -118q143 0 234 80t91 203v117h-329v168h528v-278q0 -61 -16 -122.5t-55.5 -125 t-97.5 -112t-150 -79t-205 -30.5q-272 0 -412.5 167t-140.5 456z" />
<glyph unicode="H" horiz-adv-x="1377" d="M158 0v1365h206v-572h650v572h206v-1365h-206v615h-650v-615h-206z" />
<glyph unicode="I" horiz-adv-x="521" d="M158 0v1365h206v-1365h-206z" />
<glyph unicode="J" horiz-adv-x="997" d="M25 338h200q3 -83 59.5 -132t138.5 -49q101 0 158.5 58.5t57.5 180.5v969h207v-956q0 -215 -114 -326t-308 -111q-184 0 -291.5 103t-107.5 263z" />
<glyph unicode="K" horiz-adv-x="1209" d="M158 0v1365h206v-644h9l568 644h236l-502 -583l527 -782h-256l-423 641l-159 -175v-466h-206z" />
<glyph unicode="L" horiz-adv-x="999" d="M158 0v1365h206v-1184h612v-181h-818z" />
<glyph unicode="M" horiz-adv-x="1600" d="M162 0v1365h204l432 -998h5l431 998h204v-1365h-186v963h-8l-366 -830h-157l-367 830h-7v-963h-185z" />
<glyph unicode="N" horiz-adv-x="1368" d="M158 0v1365h187l664 -1014h6v1014h195v-1365h-187l-665 1016h-6v-1016h-194z" />
<glyph unicode="O" horiz-adv-x="1326" d="M103 580v192q0 289 152 455t410 166t408 -165.5t150 -455.5v-192q0 -287 -151 -447.5t-411 -160.5q-259 0 -408.5 160.5t-149.5 447.5zM311 580q0 -211 97 -320t255 -109t255 109t97 320v194q0 211 -97.5 325.5t-254.5 114.5q-156 0 -254 -114.5t-98 -325.5v-194z" />
<glyph unicode="P" horiz-adv-x="1165" d="M158 0v1365h513q201 0 322 -121t121 -314q0 -194 -121 -313.5t-323 -119.5h-307v-497h-205zM363 670h192q87 0 147.5 11t108 39.5t70 80t22.5 129.5q0 124 -67.5 192t-190.5 68h-282v-520z" />
<glyph unicode="Q" horiz-adv-x="1327" d="M104 587v190q0 288 151 452t407 164q257 0 408.5 -164.5t151.5 -451.5v-190q0 -312 -178 -477l183 -258h-220l-118 164q-104 -44 -227 -44q-256 0 -407 163.5t-151 451.5zM308 586q0 -214 97.5 -327t254.5 -115q68 0 123 24l-175 243h214l104 -139q92 115 92 314v191 q0 212 -98.5 324.5t-257.5 112.5q-158 0 -256 -112.5t-98 -324.5v-191z" />
<glyph unicode="R" horiz-adv-x="1228" d="M158 0v1365h510q113 0 201 -33t142 -91t81.5 -132t27.5 -159q0 -80 -23 -147t-61 -112.5t-80 -75t-88 -46.5l277 -569h-233l-248 532h-302v-532h-204zM362 701h272q133 0 203 62t70 178q0 122 -72 186.5t-195 64.5h-278v-491z" />
<glyph unicode="S" horiz-adv-x="1172" d="M60 375h203q10 -99 93 -164t226 -65q136 0 215 60.5t79 163.5q0 80 -52.5 128t-166.5 76l-230 58q-68 17 -124 45t-103.5 70.5t-74 106t-26.5 142.5q0 125 68.5 217.5t177 137.5t239.5 45q129 0 236 -43.5t176 -134.5t71 -216h-199q-9 97 -82.5 159t-204.5 62 q-124 0 -199.5 -56.5t-75.5 -155.5q0 -144 191 -190l228 -58q65 -16 117 -37t98.5 -52.5t77 -71t48.5 -94t18 -121.5q0 -196 -144.5 -305.5t-375.5 -109.5q-107 0 -194 24.5t-143 64.5t-94 93.5t-54.5 108.5t-18.5 112z" />
<glyph unicode="T" horiz-adv-x="1054" d="M18 1186v179h1018v-179h-407v-1186h-204v1186h-407z" />
<glyph unicode="U" horiz-adv-x="1341" d="M142 456v909h204v-881q0 -153 88 -242t236 -89t236.5 89.5t88.5 241.5v881h204v-909q0 -216 -142 -350t-387 -134q-244 0 -386 134t-142 350z" />
<glyph unicode="V" horiz-adv-x="1214" d="M14 1365h236l357 -1114h8l354 1114h231l-479 -1365h-227z" />
<glyph unicode="W" horiz-adv-x="1696" d="M11 1365h224l247 -1037h7l261 1037h197l260 -1037h7l247 1037h224l-371 -1365h-186l-276 1030h-7l-276 -1030h-187z" />
<glyph unicode="X" horiz-adv-x="1144" d="M1 0l439 688l-433 677h245l324 -525h11l321 525h235l-447 -688l438 -677h-243l-324 521h-10l-327 -521h-229z" />
<glyph unicode="Y" horiz-adv-x="1109" d="M-5 1365h232l325 -597h7l326 597h228l-457 -797v-568h-204v565z" />
<glyph unicode="Z" horiz-adv-x="1156" d="M83 0v141l708 1041v6h-685v177h937v-139l-703 -1042v-7h721v-177h-978z" />
<glyph unicode="[" horiz-adv-x="668" d="M127 -228v1593h463v-150h-270v-1293h283v-150h-476z" />
<glyph unicode="\" horiz-adv-x="689" d="M10 1437h180l489 -1739h-179z" />
<glyph unicode="]" horiz-adv-x="668" d="M66 -78h283v1293h-271v150h463v-1593h-475v150z" />
<glyph unicode="^" horiz-adv-x="795" d="M44 795l262 570h185l260 -570h-173l-177 408h-7l-179 -408h-171z" />
<glyph unicode="_" horiz-adv-x="846" d="M-28 -103h901v-157h-901v157z" />
<glyph unicode="`" horiz-adv-x="946" d="M264 1466h194l190 -278h-149z" />
<glyph unicode="a" horiz-adv-x="1067" d="M88 303q0 142 96 223t275 82h271v103q0 96 -53.5 147t-152.5 51q-93 0 -146.5 -44t-60.5 -119h-190q8 145 109 235t294 90q179 0 290 -91t111 -258v-722h-193v130h-7q-88 -147 -299 -147q-154 0 -249 87.5t-95 232.5zM292 313q0 -82 58 -126.5t141 -44.5q103 0 171 58 t68 149v119h-243q-98 0 -146.5 -42t-48.5 -113z" />
<glyph unicode="b" horiz-adv-x="1182" d="M149 0v1437h202v-530h7q40 72 123.5 117.5t183.5 45.5q187 0 300 -129t113 -363v-100q0 -229 -112.5 -361.5t-301.5 -132.5q-216 0 -312 176h-7v-160h-196zM349 489q0 -162 72 -248.5t202 -86.5q113 0 181.5 87.5t68.5 245.5v80q0 158 -68.5 245.5t-181.5 87.5 q-129 0 -201.5 -86t-72.5 -247v-78z" />
<glyph unicode="c" horiz-adv-x="1052" d="M103 483v98q0 219 120.5 355t327.5 136q181 0 293.5 -100t119.5 -239h-194q-16 70 -72.5 119t-134.5 49q-121 0 -189 -86.5t-68 -238.5v-94q0 -150 70 -239t188 -89q90 0 144.5 43t68.5 110h193q-23 -152 -131 -238.5t-288 -86.5q-139 0 -241.5 65t-154.5 177.5 t-52 258.5z" />
<glyph unicode="d" horiz-adv-x="1179" d="M104 481v94q0 223 111 359.5t304 136.5q103 0 182.5 -45.5t119.5 -119.5h7v531h202v-1437h-196v160h-6q-43 -82 -123.5 -128.5t-185.5 -46.5q-198 0 -306.5 134t-108.5 362zM309 487q0 -161 70 -246.5t186 -85.5q124 0 194.5 86.5t70.5 244.5v82q0 153 -72 243t-195 90 q-115 0 -184.5 -85.5t-69.5 -247.5v-81z" />
<glyph unicode="e" horiz-adv-x="1093" d="M103 479v111q0 219 119.5 350.5t326.5 131.5t325.5 -134.5t118.5 -357.5v-100h-689v-22q0 -141 69.5 -227t187.5 -86q86 0 143.5 40t80.5 112h195q-28 -138 -136.5 -226.5t-286.5 -88.5q-210 0 -332 133.5t-122 363.5zM304 628h490v3q0 120 -68 200t-176 80 q-110 0 -178 -80t-68 -200v-3z" />
<glyph unicode="f" horiz-adv-x="700" d="M72 890v164h145v105q0 154 80 225t250 71q53 0 89 -6v-156q-30 4 -57 4q-86 0 -124.5 -34t-38.5 -120v-89h206v-164h-204v-890h-201v890h-145z" />
<glyph unicode="g" horiz-adv-x="1177" d="M105 502v80q0 231 113.5 359.5t301.5 128.5q104 0 186 -47t119 -119h7v150h196v-1045q0 -80 -25 -147.5t-68.5 -114t-102.5 -79t-125.5 -47.5t-139.5 -15q-201 0 -311.5 86t-127.5 226h202q15 -65 78.5 -109t159.5 -44q119 0 189 66.5t70 183.5v163h-7 q-32 -72 -113.5 -119.5t-186.5 -47.5q-188 0 -301.5 129t-113.5 362zM309 507q0 -157 69.5 -244.5t193.5 -87.5q120 0 187.5 88t67.5 244v63q0 153 -69 242.5t-186 89.5q-124 0 -193.5 -86.5t-69.5 -245.5v-63z" />
<glyph unicode="h" horiz-adv-x="1167" d="M149 0v1437h202v-527h7q34 64 111 112.5t194 48.5q167 0 270.5 -103t103.5 -291v-677h-202v639q0 125 -65.5 189.5t-175.5 64.5q-119 0 -181 -73t-62 -186v-634h-202z" />
<glyph unicode="i" horiz-adv-x="514" d="M134 1311q0 51 36 85t87 34t87 -34t36 -85t-36 -85t-87 -34t-87 34t-36 85zM156 0v1054h202v-1054h-202z" />
<glyph unicode="j" horiz-adv-x="514" d="M-51 -209q25 -5 63 -5q77 0 110.5 45t33.5 145v1078h201v-1080q0 -177 -79.5 -261.5t-225.5 -84.5q-67 0 -103 9v154zM134 1311q0 51 36 85t87 34t87 -34t36 -85t-36 -85t-87 -34t-87 34t-36 85z" />
<glyph unicode="k" horiz-adv-x="1007" d="M148 0v1437h202v-838h9l395 455h243l-406 -457l432 -597h-244l-339 474l-90 -100v-374h-202z" />
<glyph unicode="l" horiz-adv-x="507" d="M153 0v1437h201v-1437h-201z" />
<glyph unicode="m" horiz-adv-x="1749" d="M146 0v1054h199v-136h10q28 62 98.5 107.5t171.5 45.5q119 0 195 -45.5t106 -127.5h9q31 73 115.5 123t206.5 50q165 0 258 -95t93 -258v-718h-201v671q0 103 -55.5 163.5t-157.5 60.5q-103 0 -160.5 -65t-57.5 -173v-657h-198v657q0 116 -57 177t-158 61q-94 0 -155 -62 t-61 -174v-659h-201z" />
<glyph unicode="n" horiz-adv-x="1163" d="M146 0v1054h199v-144h7q34 64 112 112.5t195 48.5q167 0 270 -103t103 -291v-677h-201v639q0 125 -66 189.5t-175 64.5q-119 0 -181 -73t-62 -186v-634h-201z" />
<glyph unicode="o" horiz-adv-x="1132" d="M103 485v88q0 221 122.5 360t341.5 139q218 0 339.5 -138.5t121.5 -359.5v-89q0 -226 -121 -364.5t-340 -138.5q-220 0 -342 138.5t-122 364.5zM306 488q0 -154 67.5 -246t192.5 -92q126 0 192.5 91.5t66.5 246.5v81q0 155 -67 246t-192 91t-192.5 -91t-67.5 -246v-81z " />
<glyph unicode="p" horiz-adv-x="1172" d="M148 -362v1416h196v-153h7q46 78 126 123.5t183 45.5q181 0 294.5 -132t113.5 -363v-95q0 -230 -114 -363t-300 -133q-99 0 -176 43t-121 117h-7v-506h-202zM348 493q0 -156 72 -247.5t196 -91.5q114 0 181 88.5t67 250.5v75q0 158 -66.5 246t-185.5 88 q-122 0 -193 -90.5t-71 -242.5v-76z" />
<glyph unicode="q" horiz-adv-x="1180" d="M104 490v83q0 228 111 362.5t297 134.5q220 0 317 -166h7v150h196v-1416h-202v515h-7q-35 -73 -118 -121t-195 -48q-186 0 -296 135.5t-110 370.5zM309 496q0 -160 68 -252t189 -92q124 0 195 93t71 251v68q0 154 -71.5 245t-195.5 91q-120 0 -188 -88t-68 -248v-68z" />
<glyph unicode="r" horiz-adv-x="718" d="M146 0v1054h202v-134h7q26 59 90.5 104.5t164.5 45.5q36 0 71 -5v-181q-28 6 -90 6q-241 0 -241 -254v-636h-204z" />
<glyph unicode="s" horiz-adv-x="1005" d="M86 288h197q10 -69 68 -109.5t154 -40.5q106 0 161.5 43.5t55.5 109.5q0 27 -8 48t-28.5 37t-37.5 26t-54 20.5t-58 15t-68 13.5q-7 1 -10 2q-81 17 -138.5 37t-109.5 53.5t-78.5 85t-26.5 120.5q0 82 33 145.5t89.5 101.5t127 57t151.5 19q182 0 283 -88.5t101 -229.5 h-184q-5 68 -53.5 115.5t-152.5 47.5q-90 0 -145 -39t-55 -109q0 -32 15 -56.5t39.5 -40t58 -27t67.5 -18.5t71 -14q4 0 7 -0.5t6 -1.5q65 -12 113 -25t96 -36t78.5 -53t48.5 -76t19 -105q0 -157 -115.5 -245.5t-312.5 -88.5q-185 0 -295 82.5t-110 223.5z" />
<glyph unicode="t" horiz-adv-x="713" d="M71 890v164h146v260h199v-260h207v-164h-207v-584q0 -89 36 -120.5t130 -31.5q20 0 48 2v-157q-40 -7 -98 -7q-95 0 -156.5 17.5t-97 56.5t-49.5 93.5t-14 136.5v594h-144z" />
<glyph unicode="u" d="M131 352v702h202v-646q0 -133 65 -190t171 -57q108 0 174.5 66t66.5 184v643h202v-1054h-199v143h-8q-30 -69 -108 -114.5t-197 -45.5q-168 0 -268.5 95.5t-100.5 273.5z" />
<glyph unicode="v" horiz-adv-x="965" d="M3 1054h214l256 -829h7l276 829h205l-374 -1054h-222z" />
<glyph unicode="w" horiz-adv-x="1503" d="M36 1054h204l182 -815h9l225 815h192l226 -815h8l182 815h203l-274 -1054h-211l-228 792h-5l-228 -792h-211z" />
<glyph unicode="x" horiz-adv-x="1014" d="M26 0l353 528l-348 526h239l242 -386h2l242 386h228l-352 -526l356 -528h-234l-252 385h-3l-249 -385h-224z" />
<glyph unicode="y" horiz-adv-x="986" d="M4 1054h224l265 -848h7l267 848h215q-365 -1044 -366 -1048l-27 -73q-21 -57 -41 -97.5t-52 -84.5t-70 -71t-93.5 -44.5t-124.5 -17.5q-60 0 -119 9v157q27 -5 80 -5q91 0 136 39.5t66 120.5l14 50z" />
<glyph unicode="z" horiz-adv-x="978" d="M96 0v136l546 743v7h-540v168h789v-141l-540 -738v-7h548v-168h-803z" />
<glyph unicode="{" horiz-adv-x="737" d="M83 483v201q97 0 131.5 46t34.5 155v223q0 179 94 256.5t282 77.5h69v-154h-41q-119 0 -167 -48t-48 -159v-264q0 -105 -44.5 -159t-133.5 -62v-24q178 -17 178 -227v-297q0 -111 48 -159t167 -48h41v-154h-69q-187 0 -281.5 80.5t-94.5 261.5v254q0 108 -34.5 154 t-131.5 46z" />
<glyph unicode="|" horiz-adv-x="676" d="M251 -305v1742h175v-1742h-175z" />
<glyph unicode="}" horiz-adv-x="737" d="M43 -159h41q119 0 167.5 48t48.5 159v297q0 210 177 227v24q-177 17 -177 221v264q0 111 -48.5 159t-167.5 48h-41v154h69q188 0 282 -77.5t94 -256.5v-223q0 -109 34.5 -155t131.5 -46v-201q-97 0 -131.5 -46t-34.5 -154v-254q0 -181 -94.5 -261.5t-281.5 -80.5h-69v154 z" />
<glyph unicode="~" horiz-adv-x="1114" d="M68 529q-2 143 71 243t210 100q60 0 112 -21.5t87 -52.5t66.5 -62t66.5 -52.5t71 -21.5q58 0 88.5 48.5t33.5 122.5h169q2 -145 -71.5 -244t-207.5 -99q-59 0 -110.5 21.5t-87.5 52.5t-68.5 62t-67.5 52.5t-71 21.5q-57 0 -88.5 -48.5t-34.5 -122.5h-168z" />
<glyph unicode="&#xa1;" horiz-adv-x="530" d="M138 984q0 52 37 87t90 35t90 -35t37 -87t-37 -87.5t-90 -35.5t-90 35.5t-37 87.5zM152 -276l25 956h176l25 -956h-226z" />
<glyph unicode="&#xa2;" d="M139 597v169q0 191 102 311.5t269 139.5v240h158v-240q154 -17 244.5 -112t93.5 -214h-191q-5 27 -18 53.5t-38 53.5t-68.5 44t-100.5 17q-123 0 -190.5 -81t-67.5 -216v-167q0 -133 70 -211t189 -78q105 0 160.5 42t69.5 107h192q-5 -120 -96 -209.5t-249 -105.5v-226 h-158v226q-168 19 -269.5 140t-101.5 317z" />
<glyph unicode="&#xa3;" d="M91 618v150h189v280q0 163 110 253.5t284 90.5q175 0 277 -88.5t107 -242.5h-190q-4 71 -56 117.5t-138 46.5q-98 0 -147.5 -56.5t-49.5 -142.5v-258h296v-150h-296l-1 -205q0 -190 -72 -234v-12h662v-167h-956v176q39 1 62 5.5t46.5 18.5t35 40t19 70.5t7.5 110.5v197 h-189z" />
<glyph unicode="&#xa4;" d="M89 268l173 174q-65 94 -65 212q0 114 61 206l-169 169l111 111l167 -168q96 66 214 66q117 0 211 -63l164 165l111 -111l-165 -165q64 -96 64 -210q0 -119 -68 -217l169 -169l-110 -110l-171 171q-94 -59 -205 -59q-114 0 -208 63l-174 -175zM343 654q0 -98 70 -167.5 t168 -69.5t168.5 69.5t70.5 167.5t-70.5 168t-168.5 70t-168 -70t-70 -168z" />
<glyph unicode="&#xa5;" d="M19 1365h232l323 -597h10l325 597h229l-398 -691h229v-137h-288v-139h288v-137h-288v-261h-205v261h-287v137h287v139h-287v137h227z" />
<glyph unicode="&#xa6;" horiz-adv-x="463" d="M144 -305v682h175v-682h-175zM144 782v655h175v-655h-175z" />
<glyph unicode="&#xa7;" horiz-adv-x="930" d="M66 62h183q11 -72 65 -113t147 -41q105 0 156 47t51 117q0 40 -16.5 68.5t-58 49t-70.5 30t-96 26.5q-13 3 -19 5q-75 19 -128 40.5t-101 56t-72.5 86t-24.5 120.5q0 159 168 246v7q-162 92 -162 256q0 105 54.5 182t140 113t189.5 36q167 0 270 -89.5t103 -226.5h-178 q-3 59 -56.5 108.5t-144.5 49.5q-84 0 -135.5 -45t-51.5 -118q0 -29 9 -52.5t29.5 -41.5t39 -30t54.5 -23.5t57.5 -17t64.5 -15.5q59 -14 99 -26.5t88.5 -36.5t77.5 -54t49 -77.5t20 -108.5q0 -84 -44 -149t-108 -107v-7q67 -42 106.5 -96t39.5 -140q0 -155 -111.5 -249 t-290.5 -94q-168 0 -280 85t-113 229zM269 578q0 -75 52.5 -114t154.5 -63q1 0 44.5 -10t45.5 -11q48 20 80.5 71t32.5 108q0 74 -53.5 115t-157.5 64q-1 1 -36.5 8.5t-37.5 7.5q-46 -14 -85.5 -64.5t-39.5 -111.5z" />
<glyph unicode="&#xa8;" horiz-adv-x="946" d="M183 1298q0 45 28 74t70 29q43 0 71.5 -29t28.5 -74q0 -42 -28.5 -71t-71.5 -29q-41 0 -69.5 29t-28.5 71zM541 1298q0 45 28 74t70 29q43 0 71.5 -29t28.5 -74q0 -42 -28.5 -71t-71.5 -29q-42 0 -70 29t-28 71z" />
<glyph unicode="&#xa9;" horiz-adv-x="1639" d="M104 644v103q0 142 54 268t148 218t229 145.5t289 53.5q155 0 290 -54t228.5 -146.5t147.5 -218.5t54 -266v-103q0 -151 -53 -282t-146.5 -224.5t-228.5 -147.5t-292 -54q-209 0 -374 92t-255.5 253.5t-90.5 362.5zM230 641q0 -168 73.5 -300.5t209 -207.5t311.5 -75 q266 0 431.5 164t165.5 419v106q0 116 -44 219t-121.5 178.5t-189.5 119.5t-242 44q-173 0 -309.5 -75t-210.5 -203t-74 -283v-106zM499 632v99q0 157 90 244.5t241 87.5q137 0 219.5 -76t84.5 -177h-139q-7 48 -45.5 87.5t-118.5 39.5q-191 0 -191 -212v-94 q0 -101 50.5 -151.5t140.5 -50.5q147 0 169 109h139q-4 -99 -84.5 -170t-224.5 -71q-152 0 -241.5 87.5t-89.5 247.5z" />
<glyph unicode="&#xaa;" horiz-adv-x="641" d="M65 951q0 81 54.5 127.5t160.5 46.5h147v51q0 87 -106 87q-90 0 -101 -59h-132q6 76 64.5 121.5t172.5 45.5q111 0 176.5 -47t65.5 -150v-390h-133v74h-7q-47 -83 -164 -83q-90 0 -144 47t-54 129zM202 960q0 -40 30.5 -61t74.5 -21q50 0 85 28.5t35 72.5v56h-120 q-51 1 -78 -19.5t-27 -55.5z" />
<glyph unicode="&#xab;" horiz-adv-x="1265" d="M113 557v8l344 388h196l-339 -387v-6l339 -389h-205zM597 557v8l344 388h196l-339 -387v-6l339 -389h-205z" />
<glyph unicode="&#xac;" horiz-adv-x="1114" d="M69 462v164h974v-531h-176v367h-798z" />
<glyph unicode="&#xad;" horiz-adv-x="787" d="M78 470v180h630v-180h-630z" />
<glyph unicode="&#xae;" horiz-adv-x="995" d="M87 971v57q0 161 117.5 271.5t292.5 110.5q174 0 292.5 -111.5t118.5 -270.5v-57q0 -170 -116 -282t-295 -112q-177 0 -293.5 112t-116.5 282zM178 972q0 -132 90 -219t229 -87t230 87t91 219v56q0 123 -92 209t-229 86t-228 -85.5t-91 -209.5v-56zM346 802v401h192 q57 0 93.5 -34.5t36.5 -86.5q0 -44 -22.5 -76.5t-57.5 -42.5l93 -161h-101l-81 149h-66v-149h-87zM434 1015h63q82 0 82 62q0 60 -72 60h-73v-122z" />
<glyph unicode="&#xaf;" horiz-adv-x="944" d="M193 1237v128h558v-128h-558z" />
<glyph unicode="&#xb0;" horiz-adv-x="544" d="M43 1155q0 95 67 162t163 67q95 0 162 -67t67 -162q0 -96 -67 -163t-162 -67q-96 0 -163 67t-67 163zM161 1155q0 -46 33 -79.5t79 -33.5q47 0 79.5 33.5t32.5 79.5q0 47 -32.5 80t-79.5 33q-45 0 -78.5 -33t-33.5 -80z" />
<glyph unicode="&#xb1;" horiz-adv-x="1114" d="M78 653v159h392v262h169v-262h395v-159h-395v-277h-169v277h-392zM80 104v162h956v-162h-956z" />
<glyph unicode="&#xb2;" horiz-adv-x="640" d="M75 1156v11q0 86 61.5 148.5t175.5 62.5q105 0 169.5 -55t64.5 -140q0 -43 -21.5 -87.5t-41.5 -67.5t-56 -60l-157 -153v-2h288v-121h-471v92l243 257q74 76 74 131q0 39 -27 63t-68 24q-44 0 -70 -27t-26 -65v-11h-138z" />
<glyph unicode="&#xb3;" horiz-adv-x="649" d="M68 879h133q3 -36 33.5 -59.5t78.5 -23.5q50 0 82 26.5t32 66.5t-30.5 65.5t-81.5 25.5h-78v115h76q43 0 69.5 24t26.5 62q0 37 -26.5 60t-68.5 23q-44 0 -71 -24t-29 -58h-134q3 84 65.5 140t170.5 56q103 0 167 -49t64 -128q0 -57 -34.5 -98.5t-88.5 -56.5v-2 q63 -11 104 -51t41 -108q0 -92 -72.5 -148.5t-180.5 -56.5q-114 0 -180 59t-68 140z" />
<glyph unicode="&#xb4;" horiz-adv-x="946" d="M302 1188l191 278h193l-235 -278h-149z" />
<glyph unicode="&#xb6;" horiz-adv-x="1291" d="M97 933q0 99 30.5 176.5t77 124.5t108 77.5t118.5 42t114 11.5h215v-1575h-196v712h-20q-55 0 -113 14t-118.5 47t-108 81t-77.5 123t-30 166zM920 -210v1575h196v-1575h-196z" />
<glyph unicode="&#xb7;" horiz-adv-x="607" d="M175 537q0 53 37.5 91t90.5 38t91 -38t38 -91t-38 -90.5t-91 -37.5t-90.5 37.5t-37.5 90.5z" />
<glyph unicode="&#xb8;" horiz-adv-x="946" d="M318 -360q44 -13 114 -13q48 0 82 16.5t34 56.5q0 18 -8 31t-19.5 19.5t-33 10t-38 4t-44.5 0.5h-53v86l59 157h131l-53 -140q96 0 151.5 -42t55.5 -121q0 -92 -63 -139t-166 -51q-85 -4 -149 15v110z" />
<glyph unicode="&#xb9;" horiz-adv-x="586" d="M118 1110v135l159 120h145v-673h-145v531h-6z" />
<glyph unicode="&#xba;" horiz-adv-x="638" d="M48 1039v68q0 119 75.5 191.5t196.5 72.5q122 0 196.5 -71.5t74.5 -192.5v-68q0 -126 -74 -196.5t-197 -70.5q-125 0 -198.5 70t-73.5 197zM189 1041q0 -71 33 -114.5t98 -43.5q64 0 97 43.5t33 114.5v62q0 70 -34 114t-96 44q-63 0 -97 -44t-34 -114v-62z" />
<glyph unicode="&#xbb;" horiz-adv-x="1265" d="M121 171l339 389v6l-339 387h196l344 -388v-8l-335 -386h-205zM606 171l339 389v6l-339 387h195l344 -388v-8l-335 -386h-204z" />
<glyph unicode="&#xbc;" horiz-adv-x="1536" d="M108 1110v135l159 120h145v-673h-145v531h-6zM141 0l534 695l510 670h166l-529 -690l-514 -675h-167zM851 118v109q58 106 268 447h195v-444h81v-112h-81v-118h-129v118h-334zM987 230h198v329h-7q-72 -110 -191 -326v-3z" />
<glyph unicode="&#xbd;" horiz-adv-x="1536" d="M90 1110v135l159 120h145v-673h-145v531h-6zM121 0l534 695l510 670h166l-529 -690l-514 -675h-167zM930 471v11q0 88 62.5 151t178.5 63q107 0 172.5 -56t65.5 -142q0 -34 -10 -65t-31.5 -61t-36.5 -47t-43 -45l-160 -155v-2h293v-123h-479v93l247 261q76 78 76 133 q0 40 -27.5 64.5t-69.5 24.5q-45 0 -71 -27.5t-26 -66.5v-11h-141z" />
<glyph unicode="&#xbe;" horiz-adv-x="1536" d="M95 858h134q4 -36 34.5 -60t79.5 -24q51 0 83 27t32 68q0 40 -30.5 66t-82.5 26h-79v116h77q44 0 70.5 24t26.5 63q0 38 -26.5 61t-69.5 23q-45 0 -72 -24t-29 -59h-136q3 85 66 141.5t173 56.5q104 0 169 -49.5t65 -129.5q0 -58 -35 -99.5t-90 -57.5v-2 q64 -11 105.5 -51t41.5 -109q0 -94 -73 -151t-183 -57q-115 0 -182 59.5t-69 141.5zM185 0l534 695l510 670h166l-529 -690l-514 -675h-167zM896 118v109q76 138 268 447h196v-442h79v-114h-79v-118h-131v118h-333zM1032 232h197v327h-6q-73 -111 -191 -324v-3z" />
<glyph unicode="&#xbf;" horiz-adv-x="956" d="M59 38q0 60 15.5 109.5t48 90t59 64.5t72.5 60q53 41 75 60t45.5 48t30.5 57.5t7 71.5v58h192v-78q1 -52 -12.5 -97.5t-42 -83.5t-58.5 -66.5t-74 -61.5q-43 -34 -64 -52t-45.5 -46t-33.5 -57t-9 -66q0 -96 62.5 -144t154.5 -48q109 0 167 63.5t58 164.5h191 q1 -86 -24 -155t-66.5 -113t-98 -73.5t-115.5 -41.5t-122 -12q-82 0 -155 21.5t-131.5 63.5t-92.5 109.5t-34 153.5zM377 984q0 52 37 87t90 35t90 -35t37 -87t-37 -87.5t-90 -35.5t-90 35.5t-37 87.5z" />
<glyph unicode="&#xc0;" horiz-adv-x="1219" d="M22 0l476 1365h223l476 -1365h-221l-127 391h-490l-128 -391h-209zM311 1789h193l191 -279h-149zM408 551h392l-192 590h-7z" />
<glyph unicode="&#xc1;" horiz-adv-x="1219" d="M22 0l476 1365h223l476 -1365h-221l-127 391h-490l-128 -391h-209zM408 551h392l-192 590h-7zM525 1510l191 279h193l-235 -279h-149z" />
<glyph unicode="&#xc2;" horiz-adv-x="1219" d="M22 0l476 1365h223l476 -1365h-221l-127 391h-490l-128 -391h-209zM331 1510l217 291h124l217 -291h-160l-117 172h-4l-117 -172h-160zM408 551h392l-192 590h-7z" />
<glyph unicode="&#xc3;" horiz-adv-x="1219" d="M22 0l476 1365h223l476 -1365h-221l-127 391h-490l-128 -391h-209zM328 1499q0 83 44 142.5t126 59.5q41 0 77 -17.5t56 -39t43.5 -39t42.5 -17.5q29 0 44 29t18 67h115q0 -80 -47 -142t-129 -62q-34 0 -63 11.5t-48.5 28t-36.5 33.5t-34.5 28.5t-34.5 11.5 q-55 0 -58 -94h-115zM408 551h392l-192 590h-7z" />
<glyph unicode="&#xc4;" horiz-adv-x="1219" d="M22 0l476 1365h223l476 -1365h-221l-127 391h-490l-128 -391h-209zM357 1584q0 42 26.5 69.5t65.5 27.5q41 0 67.5 -27.5t26.5 -69.5q0 -41 -27 -68t-67 -27q-39 0 -65.5 27.5t-26.5 67.5zM408 551h392l-192 590h-7zM676 1584q0 42 26.5 69.5t65.5 27.5q41 0 68 -27.5 t27 -69.5q0 -40 -27.5 -67.5t-67.5 -27.5q-38 0 -65 27.5t-27 67.5z" />
<glyph unicode="&#xc5;" horiz-adv-x="1219" d="M22 0l476 1365h223l476 -1365h-221l-127 391h-490l-128 -391h-209zM408 551h392l-192 590h-7zM412 1678q0 82 57.5 137t140.5 55q84 0 141 -55t57 -137q0 -83 -57 -138t-141 -55q-83 0 -140.5 55t-57.5 138zM511 1678q0 -43 28.5 -72t70.5 -29t70.5 29t28.5 72 q0 42 -28.5 71t-70.5 29t-70.5 -29t-28.5 -71z" />
<glyph unicode="&#xc6;" horiz-adv-x="1864" d="M12 0l719 1365h1021v-177h-626v-408h590v-170h-590v-433h626v-177h-830v405h-468l-212 -405h-230zM535 570h387v618h-71z" />
<glyph unicode="&#xc7;" horiz-adv-x="1258" d="M103 592v174q0 300 146.5 463.5t400.5 163.5q121 0 221 -40t162.5 -106t96.5 -149t34 -172v-10h-201q0 56 -20.5 108.5t-58.5 95t-98.5 68t-134.5 25.5q-157 0 -249 -114t-92 -335v-171q0 -222 91.5 -331.5t253.5 -109.5q146 0 227 80t81 197h201v-11q0 -76 -28.5 -149.5 t-83.5 -137t-145.5 -106t-203.5 -50.5l-40 -107q95 0 151 -42t56 -121q0 -92 -63 -139t-166 -51q-84 -4 -150 15v110q44 -13 115 -13q48 0 82 16.5t34 56.5q0 18 -8 31t-19.5 19.5t-33 10t-38 4t-44.5 0.5h-53v86l47 125q-222 24 -346 182.5t-124 433.5z" />
<glyph unicode="&#xc8;" horiz-adv-x="1107" d="M158 0v1365h838v-177h-633v-408h597v-170h-597v-433h633v-177h-838zM272 1789h193l191 -279h-149z" />
<glyph unicode="&#xc9;" horiz-adv-x="1107" d="M158 0v1365h838v-177h-633v-408h597v-170h-597v-433h633v-177h-838zM486 1510l191 279h193l-235 -279h-149z" />
<glyph unicode="&#xca;" horiz-adv-x="1107" d="M158 0v1365h838v-177h-633v-408h597v-170h-597v-433h633v-177h-838zM292 1510l217 291h124l217 -291h-160l-117 172h-4l-117 -172h-160z" />
<glyph unicode="&#xcb;" horiz-adv-x="1107" d="M158 0v1365h838v-177h-633v-408h597v-170h-597v-433h633v-177h-838zM320 1584q0 42 26.5 69.5t65.5 27.5q41 0 67.5 -27.5t26.5 -69.5q0 -41 -27 -68t-67 -27q-39 0 -65.5 27.5t-26.5 67.5zM639 1584q0 42 26.5 69.5t65.5 27.5q41 0 68 -27.5t27 -69.5q0 -40 -27 -67.5 t-68 -27.5q-38 0 -65 27.5t-27 67.5z" />
<glyph unicode="&#xcc;" horiz-adv-x="521" d="M-39 1789h193l191 -279h-149zM158 0v1365h206v-1365h-206z" />
<glyph unicode="&#xcd;" horiz-adv-x="521" d="M158 0v1365h206v-1365h-206zM175 1510l191 279h193l-235 -279h-149z" />
<glyph unicode="&#xce;" horiz-adv-x="521" d="M-19 1510l217 291h124l217 -291h-160l-117 172h-4l-117 -172h-160zM158 0v1365h206v-1365h-206z" />
<glyph unicode="&#xcf;" horiz-adv-x="521" d="M9 1584q0 42 26.5 69.5t65.5 27.5q41 0 67.5 -27.5t26.5 -69.5q0 -41 -27 -68t-67 -27q-39 0 -65.5 27.5t-26.5 67.5zM158 0v1365h206v-1365h-206zM328 1584q0 42 26.5 69.5t65.5 27.5q41 0 68 -27.5t27 -69.5q0 -40 -27.5 -67.5t-67.5 -27.5q-38 0 -65 27.5t-27 67.5z " />
<glyph unicode="&#xd0;" horiz-adv-x="1384" d="M77 607v179h162v579h457q129 0 231.5 -33t171.5 -91.5t114.5 -144.5t66 -187.5t20.5 -224.5q0 -121 -19.5 -222t-64.5 -188t-114 -147t-172 -93.5t-234 -33.5h-457v607h-162zM444 179h233q207 0 308 124.5t101 379.5q0 118 -22 209t-69.5 159t-127 103.5t-190.5 35.5 h-233v-404h288v-179h-288v-428z" />
<glyph unicode="&#xd1;" horiz-adv-x="1368" d="M158 0v1365h187l664 -1014h6v1014h195v-1365h-187l-665 1016h-6v-1016h-194zM401 1499q0 83 44 142.5t126 59.5q41 0 77 -17.5t56 -39t43.5 -39t42.5 -17.5q29 0 44 29t18 67h115q0 -80 -47 -142t-129 -62q-34 0 -63 11.5t-48.5 28t-36.5 33.5t-34.5 28.5t-34.5 11.5 q-55 0 -58 -94h-115z" />
<glyph unicode="&#xd2;" horiz-adv-x="1326" d="M103 580v192q0 289 152 455t410 166t408 -165.5t150 -455.5v-192q0 -287 -151 -447.5t-411 -160.5q-259 0 -408.5 160.5t-149.5 447.5zM311 580q0 -211 97 -320t255 -109t255 109t97 320v194q0 211 -97.5 325.5t-254.5 114.5q-156 0 -254 -114.5t-98 -325.5v-194z M362 1789h193l191 -279h-149z" />
<glyph unicode="&#xd3;" horiz-adv-x="1326" d="M103 580v192q0 289 152 455t410 166t408 -165.5t150 -455.5v-192q0 -287 -151 -447.5t-411 -160.5q-259 0 -408.5 160.5t-149.5 447.5zM311 580q0 -211 97 -320t255 -109t255 109t97 320v194q0 211 -97.5 325.5t-254.5 114.5q-156 0 -254 -114.5t-98 -325.5v-194z M576 1510l191 279h193l-235 -279h-149z" />
<glyph unicode="&#xd4;" horiz-adv-x="1326" d="M103 580v192q0 289 152 455t410 166t408 -165.5t150 -455.5v-192q0 -287 -151 -447.5t-411 -160.5q-259 0 -408.5 160.5t-149.5 447.5zM311 580q0 -211 97 -320t255 -109t255 109t97 320v194q0 211 -97.5 325.5t-254.5 114.5q-156 0 -254 -114.5t-98 -325.5v-194z M382 1510l217 291h124l217 -291h-160l-117 172h-4l-117 -172h-160z" />
<glyph unicode="&#xd5;" horiz-adv-x="1326" d="M103 580v192q0 289 152 455t410 166t408 -165.5t150 -455.5v-192q0 -287 -151 -447.5t-411 -160.5q-259 0 -408.5 160.5t-149.5 447.5zM311 580q0 -211 97 -320t255 -109t255 109t97 320v194q0 211 -97.5 325.5t-254.5 114.5q-156 0 -254 -114.5t-98 -325.5v-194z M379 1499q0 83 44 142.5t126 59.5q41 0 77 -17.5t56 -39t43.5 -39t42.5 -17.5q29 0 44 29t18 67h115q0 -80 -47 -142t-129 -62q-34 0 -63 11.5t-48.5 28t-36.5 33.5t-34.5 28.5t-34.5 11.5q-55 0 -58 -94h-115z" />
<glyph unicode="&#xd6;" horiz-adv-x="1326" d="M103 580v192q0 289 152 455t410 166t408 -165.5t150 -455.5v-192q0 -287 -151 -447.5t-411 -160.5q-259 0 -408.5 160.5t-149.5 447.5zM311 580q0 -211 97 -320t255 -109t255 109t97 320v194q0 211 -97.5 325.5t-254.5 114.5q-156 0 -254 -114.5t-98 -325.5v-194z M411 1584q0 42 26.5 69.5t65.5 27.5q41 0 67.5 -27.5t26.5 -69.5q0 -41 -27 -68t-67 -27q-39 0 -65.5 27.5t-26.5 67.5zM730 1584q0 42 26.5 69.5t65.5 27.5q41 0 68 -27.5t27 -69.5q0 -40 -27.5 -67.5t-67.5 -27.5q-38 0 -65 27.5t-27 67.5z" />
<glyph unicode="&#xd7;" horiz-adv-x="1114" d="M126 193l310 310l-310 310l120 120l311 -310l310 310l120 -120l-310 -310l310 -310l-120 -121l-310 310l-311 -310z" />
<glyph unicode="&#xd8;" horiz-adv-x="1324" d="M75 70l116 145q-88 148 -88 365v192q0 289 151 455t409 166q228 0 373 -133l95 118l109 -79l-116 -144q97 -154 97 -383v-192q0 -287 -151 -447.5t-410 -160.5q-236 0 -380 136l-100 -124zM308 579q0 -107 28 -186l576 714q-95 109 -251 109q-157 0 -255 -114.5 t-98 -327.5v-195zM403 260q94 -112 258 -112q160 0 257 109.5t97 321.5v195q0 117 -34 204z" />
<glyph unicode="&#xd9;" horiz-adv-x="1341" d="M142 456v909h204v-881q0 -153 88 -242t236 -89t236.5 89.5t88.5 241.5v881h204v-909q0 -216 -142 -350t-387 -134q-244 0 -386 134t-142 350zM371 1789h193l191 -279h-149z" />
<glyph unicode="&#xda;" horiz-adv-x="1341" d="M142 456v909h204v-881q0 -153 88 -242t236 -89t236.5 89.5t88.5 241.5v881h204v-909q0 -216 -142 -350t-387 -134q-244 0 -386 134t-142 350zM585 1510l191 279h193l-235 -279h-149z" />
<glyph unicode="&#xdb;" horiz-adv-x="1341" d="M142 456v909h204v-881q0 -153 88 -242t236 -89t236.5 89.5t88.5 241.5v881h204v-909q0 -216 -142 -350t-387 -134q-244 0 -386 134t-142 350zM391 1510l217 291h124l217 -291h-160l-117 172h-4l-117 -172h-160z" />
<glyph unicode="&#xdc;" horiz-adv-x="1341" d="M142 456v909h204v-881q0 -153 88 -242t236 -89t236.5 89.5t88.5 241.5v881h204v-909q0 -216 -142 -350t-387 -134q-244 0 -386 134t-142 350zM419 1584q0 42 26.5 69.5t65.5 27.5q41 0 67.5 -27.5t26.5 -69.5q0 -41 -27 -68t-67 -27q-39 0 -65.5 27.5t-26.5 67.5z M738 1584q0 42 26.5 69.5t65.5 27.5q41 0 68 -27.5t27 -69.5q0 -40 -27.5 -67.5t-67.5 -27.5q-38 0 -65 27.5t-27 67.5z" />
<glyph unicode="&#xdd;" horiz-adv-x="1108" d="M-5 1365h232l325 -597h7l326 597h228l-457 -797v-568h-204v565zM469 1510l191 279h193l-235 -279h-149z" />
<glyph unicode="&#xde;" horiz-adv-x="1161" d="M158 0v1365h204v-252h292q206 0 325 -106t119 -295q0 -191 -119.5 -296t-325.5 -105h-290v-311h-205zM363 483h230q55 0 94.5 4.5t79.5 18.5t64.5 38.5t40 66.5t15.5 101q0 227 -258 227h-266v-456z" />
<glyph unicode="&#xdf;" horiz-adv-x="1252" d="M156 0v1045q0 186 121 290.5t320 104.5q198 0 319 -98t121 -256q0 -74 -25.5 -136.5t-65.5 -100.5t-82 -60.5t-81 -26.5v-13q70 0 137 -23.5t122.5 -67t89 -114.5t33.5 -158q0 -98 -40 -176.5t-108 -127t-153 -74t-180 -25.5t-156 19v164q50 -19 140 -19q56 0 105.5 13 t92 40t68 75.5t25.5 113.5q0 117 -89.5 183.5t-238.5 66.5h-77v188h47q89 0 162.5 66t73.5 169q0 93 -63 152t-172 59q-244 0 -244 -259v-1014h-202z" />
<glyph unicode="&#xe0;" horiz-adv-x="1067" d="M88 303q0 142 96 223t275 82h271v103q0 96 -53.5 147t-152.5 51q-93 0 -146.5 -44t-60.5 -119h-190q8 145 109 235t294 90q179 0 290 -91t111 -258v-722h-193v130h-7q-88 -147 -299 -147q-154 0 -249 87.5t-95 232.5zM238 1466h194l190 -278h-149zM292 313 q0 -82 58 -126.5t141 -44.5q103 0 171 58t68 149v119h-243q-98 0 -146.5 -42t-48.5 -113z" />
<glyph unicode="&#xe1;" horiz-adv-x="1067" d="M88 303q0 142 96 223t275 82h271v103q0 96 -53.5 147t-152.5 51q-93 0 -146.5 -44t-60.5 -119h-190q8 145 109 235t294 90q179 0 290 -91t111 -258v-722h-193v130h-7q-88 -147 -299 -147q-154 0 -249 87.5t-95 232.5zM292 313q0 -82 58 -126.5t141 -44.5q103 0 171 58 t68 149v119h-243q-98 0 -146.5 -42t-48.5 -113zM448 1188l191 278h193l-235 -278h-149z" />
<glyph unicode="&#xe2;" horiz-adv-x="1067" d="M88 303q0 142 96 223t275 82h271v103q0 96 -53.5 147t-152.5 51q-93 0 -146.5 -44t-60.5 -119h-190q8 145 109 235t294 90q179 0 290 -91t111 -258v-722h-193v130h-7q-88 -147 -299 -147q-154 0 -249 87.5t-95 232.5zM255 1188l217 303h126l217 -303h-161l-117 180h-4 l-117 -180h-161zM292 313q0 -82 58 -126.5t141 -44.5q103 0 171 58t68 149v119h-243q-98 0 -146.5 -42t-48.5 -113z" />
<glyph unicode="&#xe3;" horiz-adv-x="1067" d="M88 303q0 142 96 223t275 82h271v103q0 96 -53.5 147t-152.5 51q-93 0 -146.5 -44t-60.5 -119h-190q8 145 109 235t294 90q179 0 290 -91t111 -258v-722h-193v130h-7q-88 -147 -299 -147q-154 0 -249 87.5t-95 232.5zM208 1203q0 95 50 161.5t139 66.5q45 0 84 -20 t61 -43.5t49 -43.5t50 -20q34 0 51.5 33.5t21.5 76.5h128q0 -89 -53.5 -160t-144.5 -71q-45 0 -83.5 20t-60.5 44t-48.5 44t-49.5 20q-26 0 -41.5 -21t-19.5 -42t-5 -45h-128zM292 313q0 -82 58 -126.5t141 -44.5q103 0 171 58t68 149v119h-243q-98 0 -146.5 -42t-48.5 -113 z" />
<glyph unicode="&#xe4;" horiz-adv-x="1067" d="M88 303q0 142 96 223t275 82h271v103q0 96 -53.5 147t-152.5 51q-93 0 -146.5 -44t-60.5 -119h-190q8 145 109 235t294 90q179 0 290 -91t111 -258v-722h-193v130h-7q-88 -147 -299 -147q-154 0 -249 87.5t-95 232.5zM257 1298q0 45 28 74t70 29q43 0 71.5 -29t28.5 -74 q0 -42 -28.5 -71t-71.5 -29q-41 0 -69.5 29t-28.5 71zM292 313q0 -82 58 -126.5t141 -44.5q103 0 171 58t68 149v119h-243q-98 0 -146.5 -42t-48.5 -113zM615 1298q0 45 28 74t70 29q43 0 71.5 -29t28.5 -74q0 -42 -28.5 -71t-71.5 -29q-42 0 -70 29t-28 71z" />
<glyph unicode="&#xe5;" horiz-adv-x="1067" d="M88 303q0 142 96 223t275 82h271v103q0 96 -53.5 147t-152.5 51q-93 0 -146.5 -44t-60.5 -119h-190q8 145 109 235t294 90q179 0 290 -91t111 -258v-722h-193v130h-7q-88 -147 -299 -147q-154 0 -249 87.5t-95 232.5zM292 313q0 -82 58 -126.5t141 -44.5q103 0 171 58 t68 149v119h-243q-98 0 -146.5 -42t-48.5 -113zM337 1375q0 82 57.5 137t140.5 55q84 0 141 -55t57 -137q0 -83 -57 -138t-141 -55q-83 0 -140.5 55t-57.5 138zM436 1375q0 -43 28.5 -72t70.5 -29t70.5 29t28.5 72q0 42 -28.5 71t-70.5 29t-70.5 -29t-28.5 -71z" />
<glyph unicode="&#xe6;" horiz-adv-x="1727" d="M88 303q0 147 96.5 233.5t274.5 86.5h271v88q0 96 -53.5 147t-152.5 51q-93 0 -146.5 -44t-60.5 -119h-190q8 145 109 235.5t294 90.5q107 0 193 -37.5t135 -104.5h3q111 142 322 142q215 0 330 -136t115 -364v-92h-690v-30q0 -60 15.5 -113.5t46 -96t81 -67t115.5 -24.5 q97 0 150.5 42t67.5 106h201q-8 -56 -34.5 -108t-74 -100t-127.5 -77.5t-182 -29.5q-262 0 -376 199h-3q-123 -199 -371 -199q-164 0 -261.5 87.5t-97.5 233.5zM292 313q0 -82 58 -126.5t141 -44.5q103 0 171 58t68 149v128h-236q-103 0 -152.5 -43.5t-49.5 -120.5zM938 628 h491v3q0 123 -66 200.5t-179 77.5t-179.5 -78t-66.5 -200v-3z" />
<glyph unicode="&#xe7;" horiz-adv-x="1052" d="M103 483v98q0 219 120.5 355t327.5 136q181 0 293.5 -100t119.5 -239h-194q-16 70 -72.5 119t-134.5 49q-121 0 -189 -86.5t-68 -238.5v-94q0 -150 70 -239t188 -89q90 0 144.5 43t68.5 110h193q-21 -136 -111 -221t-240 -100l-45 -101q94 0 146.5 -41.5t52.5 -121.5 q0 -92 -63 -139t-167 -51q-87 -3 -149 15v111q47 -14 115 -14q115 0 115 73q0 19 -7.5 31.5t-17.5 19.5t-29.5 10.5t-35.5 4t-44 0.5h-53v85l51 118q-181 21 -283 156.5t-102 340.5z" />
<glyph unicode="&#xe8;" horiz-adv-x="1093" d="M103 479v111q0 219 119.5 350.5t326.5 131.5t325.5 -134.5t118.5 -357.5v-100h-689v-22q0 -141 69.5 -227t187.5 -86q86 0 143.5 40t80.5 112h195q-28 -138 -136.5 -226.5t-286.5 -88.5q-210 0 -332 133.5t-122 363.5zM251 1466h194l190 -278h-149zM304 628h490v3 q0 120 -68 200t-176 80q-110 0 -178 -80t-68 -200v-3z" />
<glyph unicode="&#xe9;" horiz-adv-x="1093" d="M103 479v111q0 219 119.5 350.5t326.5 131.5t325.5 -134.5t118.5 -357.5v-100h-689v-22q0 -141 69.5 -227t187.5 -86q86 0 143.5 40t80.5 112h195q-28 -138 -136.5 -226.5t-286.5 -88.5q-210 0 -332 133.5t-122 363.5zM304 628h490v3q0 120 -68 200t-176 80 q-110 0 -178 -80t-68 -200v-3zM461 1188l191 278h193l-235 -278h-149z" />
<glyph unicode="&#xea;" horiz-adv-x="1093" d="M103 479v111q0 219 119.5 350.5t326.5 131.5t325.5 -134.5t118.5 -357.5v-100h-689v-22q0 -141 69.5 -227t187.5 -86q86 0 143.5 40t80.5 112h195q-28 -138 -136.5 -226.5t-286.5 -88.5q-210 0 -332 133.5t-122 363.5zM268 1188l217 303h126l217 -303h-161l-117 180h-4 l-117 -180h-161zM304 628h490v3q0 120 -68 200t-176 80q-110 0 -178 -80t-68 -200v-3z" />
<glyph unicode="&#xeb;" horiz-adv-x="1093" d="M103 479v111q0 219 119.5 350.5t326.5 131.5t325.5 -134.5t118.5 -357.5v-100h-689v-22q0 -141 69.5 -227t187.5 -86q86 0 143.5 40t80.5 112h195q-28 -138 -136.5 -226.5t-286.5 -88.5q-210 0 -332 133.5t-122 363.5zM270 1298q0 45 28 74t70 29q43 0 71.5 -29t28.5 -74 q0 -42 -28.5 -71t-71.5 -29q-41 0 -69.5 29t-28.5 71zM304 628h490v3q0 120 -68 200t-176 80q-110 0 -178 -80t-68 -200v-3zM628 1298q0 45 28 74t70 29q43 0 71.5 -29t28.5 -74q0 -42 -28.5 -71t-71.5 -29q-42 0 -70 29t-28 71z" />
<glyph unicode="&#xec;" horiz-adv-x="514" d="M-43 1466h194l190 -278h-149zM156 0v1054h202v-1054h-202z" />
<glyph unicode="&#xed;" horiz-adv-x="514" d="M156 0v1054h202v-1054h-202zM167 1188l191 278h193l-235 -278h-149z" />
<glyph unicode="&#xee;" horiz-adv-x="514" d="M-26 1188l217 303h126l217 -303h-161l-117 180h-4l-117 -180h-161zM156 0v1054h202v-1054h-202z" />
<glyph unicode="&#xef;" horiz-adv-x="514" d="M-24 1298q0 45 28 74t70 29q43 0 71.5 -29t28.5 -74q0 -42 -28.5 -71t-71.5 -29q-41 0 -69.5 29t-28.5 71zM156 0v1054h202v-1054h-202zM334 1298q0 45 28 74t70 29q43 0 71.5 -29t28.5 -74q0 -42 -28.5 -71t-71.5 -29q-42 0 -70 29t-28 71z" />
<glyph unicode="&#xf0;" horiz-adv-x="1115" d="M103 485v32q0 143 50.5 255.5t148 178t227.5 65.5q176 0 261 -121h11q-21 59 -22 62q-55 149 -135 250l-253 -92l-46 108l217 77q-122 134 -226 222h246q79 -63 157 -156l271 97l41 -102l-231 -86q102 -150 155 -330.5t53 -373.5v-86q0 -226 -118.5 -364.5t-341.5 -138.5 q-222 0 -343.5 138.5t-121.5 364.5zM304 487q0 -157 69 -246t194 -89q124 0 192.5 89t68.5 246v30q0 157 -68.5 245.5t-192.5 88.5q-125 0 -194 -88.5t-69 -245.5v-30z" />
<glyph unicode="&#xf1;" horiz-adv-x="1163" d="M146 0v1054h199v-144h7q34 64 112 112.5t195 48.5q167 0 270 -103t103 -291v-677h-201v639q0 125 -66 189.5t-175 64.5q-119 0 -181 -73t-62 -186v-634h-201zM258 1203q0 95 50 161.5t139 66.5q45 0 84 -20t61 -43.5t49 -43.5t50 -20q34 0 51.5 33.5t21.5 76.5h128 q0 -89 -53.5 -160t-144.5 -71q-45 0 -83.5 20t-60.5 44t-48.5 44t-49.5 20q-26 0 -41.5 -21t-19.5 -42t-5 -45h-128z" />
<glyph unicode="&#xf2;" horiz-adv-x="1132" d="M103 485v88q0 221 122.5 360t341.5 139q218 0 339.5 -138.5t121.5 -359.5v-89q0 -226 -121 -364.5t-340 -138.5q-220 0 -342 138.5t-122 364.5zM270 1466h194l190 -278h-149zM306 488q0 -154 67.5 -246t192.5 -92q126 0 192.5 91.5t66.5 246.5v81q0 155 -67 246t-192 91 t-192.5 -91t-67.5 -246v-81z" />
<glyph unicode="&#xf3;" horiz-adv-x="1132" d="M103 485v88q0 221 122.5 360t341.5 139q218 0 339.5 -138.5t121.5 -359.5v-89q0 -226 -121 -364.5t-340 -138.5q-220 0 -342 138.5t-122 364.5zM306 488q0 -154 67.5 -246t192.5 -92q126 0 192.5 91.5t66.5 246.5v81q0 155 -67 246t-192 91t-192.5 -91t-67.5 -246v-81z M480 1188l191 278h193l-235 -278h-149z" />
<glyph unicode="&#xf4;" horiz-adv-x="1132" d="M103 485v88q0 221 122.5 360t341.5 139q218 0 339.5 -138.5t121.5 -359.5v-89q0 -226 -121 -364.5t-340 -138.5q-220 0 -342 138.5t-122 364.5zM287 1188l217 303h126l217 -303h-161l-117 180h-4l-117 -180h-161zM306 488q0 -154 67.5 -246t192.5 -92q126 0 192.5 91.5 t66.5 246.5v81q0 155 -67 246t-192 91t-192.5 -91t-67.5 -246v-81z" />
<glyph unicode="&#xf5;" horiz-adv-x="1132" d="M103 485v88q0 221 122.5 360t341.5 139q218 0 339.5 -138.5t121.5 -359.5v-89q0 -226 -121 -364.5t-340 -138.5q-220 0 -342 138.5t-122 364.5zM240 1203q0 95 50 161.5t139 66.5q45 0 84 -20t61 -43.5t49 -43.5t50 -20q34 0 51.5 33.5t21.5 76.5h128q0 -89 -53.5 -160 t-144.5 -71q-45 0 -83.5 20t-60.5 44t-48.5 44t-49.5 20q-26 0 -41.5 -21t-19.5 -42t-5 -45h-128zM306 488q0 -154 67.5 -246t192.5 -92q126 0 192.5 91.5t66.5 246.5v81q0 155 -67 246t-192 91t-192.5 -91t-67.5 -246v-81z" />
<glyph unicode="&#xf6;" horiz-adv-x="1132" d="M103 485v88q0 221 122.5 360t341.5 139q218 0 339.5 -138.5t121.5 -359.5v-89q0 -226 -121 -364.5t-340 -138.5q-220 0 -342 138.5t-122 364.5zM289 1298q0 45 28 74t70 29q43 0 71.5 -29t28.5 -74q0 -42 -28.5 -71t-71.5 -29q-41 0 -69.5 29t-28.5 71zM306 488 q0 -154 67.5 -246t192.5 -92q126 0 192.5 91.5t66.5 246.5v81q0 155 -67 246t-192 91t-192.5 -91t-67.5 -246v-81zM647 1298q0 45 28 74t70 29q43 0 71.5 -29t28.5 -74q0 -42 -28.5 -71t-71.5 -29q-42 0 -70 29t-28 71z" />
<glyph unicode="&#xf7;" horiz-adv-x="1114" d="M81 479v153h952v-153h-952zM432 180q0 54 35.5 87.5t87.5 33.5q55 0 91 -33.5t36 -87.5q0 -52 -36 -85.5t-91 -33.5q-51 0 -87 34t-36 85zM432 936q0 54 35.5 87.5t87.5 33.5q55 0 91 -33.5t36 -87.5q0 -52 -36 -85.5t-91 -33.5q-51 0 -87 34t-36 85z" />
<glyph unicode="&#xf8;" horiz-adv-x="1132" d="M86 0l113 153q-96 131 -96 332v88q0 221 122.5 360t341.5 139q157 0 265 -74l96 129l99 -77l-103 -138q104 -131 104 -338v-89q0 -226 -121 -364.5t-340 -138.5q-168 0 -279 82l-103 -139zM305 488q0 -98 30 -169l389 534q-62 56 -158 56q-126 0 -193.5 -92t-67.5 -247 v-82zM399 213q65 -65 167 -65q127 0 194 92.5t67 247.5v82q0 109 -36 181z" />
<glyph unicode="&#xf9;" d="M131 352v702h202v-646q0 -133 65 -190t171 -57q108 0 174.5 66t66.5 184v643h202v-1054h-199v143h-8q-30 -69 -108 -114.5t-197 -45.5q-168 0 -268.5 95.5t-100.5 273.5zM278 1466h194l190 -278h-149z" />
<glyph unicode="&#xfa;" d="M131 352v702h202v-646q0 -133 65 -190t171 -57q108 0 174.5 66t66.5 184v643h202v-1054h-199v143h-8q-30 -69 -108 -114.5t-197 -45.5q-168 0 -268.5 95.5t-100.5 273.5zM488 1188l191 278h193l-235 -278h-149z" />
<glyph unicode="&#xfb;" d="M131 352v702h202v-646q0 -133 65 -190t171 -57q108 0 174.5 66t66.5 184v643h202v-1054h-199v143h-8q-30 -69 -108 -114.5t-197 -45.5q-168 0 -268.5 95.5t-100.5 273.5zM295 1188l217 303h126l217 -303h-161l-117 180h-4l-117 -180h-161z" />
<glyph unicode="&#xfc;" d="M131 352v702h202v-646q0 -133 65 -190t171 -57q108 0 174.5 66t66.5 184v643h202v-1054h-199v143h-8q-30 -69 -108 -114.5t-197 -45.5q-168 0 -268.5 95.5t-100.5 273.5zM297 1298q0 45 28 74t70 29q43 0 71.5 -29t28.5 -74q0 -42 -28.5 -71t-71.5 -29q-41 0 -69.5 29 t-28.5 71zM655 1298q0 45 28 74t70 29q43 0 71.5 -29t28.5 -74q0 -42 -28.5 -71t-71.5 -29q-42 0 -70 29t-28 71z" />
<glyph unicode="&#xfd;" horiz-adv-x="986" d="M4 1054h224l265 -848h7l267 848h215q-365 -1044 -366 -1048l-27 -73q-21 -57 -41 -97.5t-52 -84.5t-70 -71t-93.5 -44.5t-124.5 -17.5q-60 0 -119 9v157q27 -5 80 -5q91 0 136 39.5t66 120.5l14 50zM411 1188l191 278h193l-235 -278h-149z" />
<glyph unicode="&#xfe;" horiz-adv-x="1172" d="M148 -362v1799h202v-531h7q40 76 119 120t184 44q181 0 294.5 -132t113.5 -363v-95q0 -230 -114 -363t-300 -133q-99 0 -176 43t-121 117h-7v-506h-202zM348 493q0 -156 72 -247.5t196 -91.5q114 0 181 88.5t67 250.5v75q0 158 -66.5 246t-185.5 88q-122 0 -193 -90.5 t-71 -242.5v-76z" />
<glyph unicode="&#xff;" horiz-adv-x="986" d="M4 1054h224l265 -848h7l267 848h215q-365 -1044 -366 -1048l-27 -73q-21 -57 -41 -97.5t-52 -84.5t-70 -71t-93.5 -44.5t-124.5 -17.5q-60 0 -119 9v157q27 -5 80 -5q91 0 136 39.5t66 120.5l14 50zM220 1298q0 45 28 74t70 29q43 0 71.5 -29t28.5 -74q0 -42 -28.5 -71 t-71.5 -29q-41 0 -69.5 29t-28.5 71zM578 1298q0 45 28 74t70 29q43 0 71.5 -29t28.5 -74q0 -42 -28.5 -71t-71.5 -29q-42 0 -70 29t-28 71z" />
<glyph unicode="&#x152;" horiz-adv-x="1958" d="M103 581v191q0 292 148.5 456.5t396.5 164.5q119 0 217.5 -42.5t150.5 -124.5h15v139h815v-177h-625v-408h589v-170h-589v-433h625v-177h-815v144h-14q-55 -82 -154 -127t-219 -45q-250 0 -395.5 161.5t-145.5 447.5zM314 579q0 -211 97 -320t254 -109q160 0 257.5 104.5 t97.5 313.5v224q0 209 -98 315.5t-257 106.5q-156 0 -253.5 -114.5t-97.5 -325.5v-195z" />
<glyph unicode="&#x153;" horiz-adv-x="1802" d="M95 455v146q0 214 129.5 342.5t337.5 128.5q110 0 203.5 -43t146.5 -129h13q46 75 137 123.5t209 48.5q201 0 319.5 -135t118.5 -357v-100h-689v-22q0 -142 69.5 -227.5t189.5 -85.5q84 0 142 40t80 112h196q-28 -136 -136 -225.5t-285 -89.5q-119 0 -209.5 45 t-141.5 126h-13q-54 -80 -148.5 -125.5t-210.5 -45.5q-204 0 -331 125t-127 348zM297 466q0 -143 68.5 -229.5t192.5 -86.5t191 86.5t67 229.5v123q0 141 -69 229t-189 88t-190.5 -88t-70.5 -229v-123zM1020 628h491v3q0 120 -68 200t-177 80t-176.5 -79.5t-69.5 -199.5v-4z " />
<glyph unicode="&#x178;" horiz-adv-x="1109" d="M-5 1365h232l325 -597h7l326 597h228l-457 -797v-568h-204v565zM302 1584q0 42 26.5 69.5t65.5 27.5q41 0 67.5 -27.5t26.5 -69.5q0 -41 -27 -68t-67 -27q-39 0 -65.5 27.5t-26.5 67.5zM621 1584q0 42 26.5 69.5t65.5 27.5q41 0 68 -27.5t27 -69.5q0 -40 -27 -67.5 t-68 -27.5q-38 0 -65 27.5t-27 67.5z" />
<glyph unicode="&#x2c6;" horiz-adv-x="945" d="M192 1188l217 303h126l217 -303h-161l-117 180h-4l-117 -180h-161z" />
<glyph unicode="&#x2dc;" horiz-adv-x="946" d="M146 1214q0 95 50 161.5t139 66.5q45 0 84 -20t61 -43.5t49 -43.5t50 -20q34 0 51.5 33.5t21.5 76.5h128q0 -89 -53.5 -160t-144.5 -71q-45 0 -83.5 20t-60.5 44t-48.5 44t-49.5 20q-26 0 -41.5 -21t-19.5 -42t-5 -45h-128z" />
<glyph unicode="&#x2000;" horiz-adv-x="935" />
<glyph unicode="&#x2001;" horiz-adv-x="1870" />
<glyph unicode="&#x2002;" horiz-adv-x="935" />
<glyph unicode="&#x2003;" horiz-adv-x="1870" />
<glyph unicode="&#x2004;" horiz-adv-x="623" />
<glyph unicode="&#x2005;" horiz-adv-x="467" />
<glyph unicode="&#x2006;" horiz-adv-x="311" />
<glyph unicode="&#x2007;" horiz-adv-x="311" />
<glyph unicode="&#x2008;" horiz-adv-x="233" />
<glyph unicode="&#x2009;" horiz-adv-x="374" />
<glyph unicode="&#x200a;" horiz-adv-x="103" />
<glyph unicode="&#x2010;" horiz-adv-x="787" d="M78 470v180h630v-180h-630z" />
<glyph unicode="&#x2011;" horiz-adv-x="787" d="M78 470v180h630v-180h-630z" />
<glyph unicode="&#x2012;" horiz-adv-x="787" d="M78 470v180h630v-180h-630z" />
<glyph unicode="&#x2013;" horiz-adv-x="1171" d="M0 470v180h1171v-180h-1171z" />
<glyph unicode="&#x2014;" horiz-adv-x="2048" d="M0 470v180h2048v-180h-2048z" />
<glyph unicode="&#x2018;" horiz-adv-x="517" d="M121 917l152 448h156l-105 -448h-203z" />
<glyph unicode="&#x2019;" horiz-adv-x="566" d="M142 917l106 448h203l-153 -448h-156z" />
<glyph unicode="&#x201a;" horiz-adv-x="566" d="M142 -415l106 448h203l-153 -448h-156z" />
<glyph unicode="&#x201c;" horiz-adv-x="852" d="M94 917l152 448h156l-105 -448h-203zM452 917l152 448h156l-105 -448h-203z" />
<glyph unicode="&#x201d;" horiz-adv-x="852" d="M92 917l105 448h203l-152 -448h-156zM450 917l106 448h203l-153 -448h-156z" />
<glyph unicode="&#x201e;" horiz-adv-x="859" d="M92 -341l105 448h203l-152 -448h-156zM450 -341l106 448h203l-153 -448h-156z" />
<glyph unicode="&#x2022;" horiz-adv-x="930" d="M156 604q0 128 90 218.5t218 90.5t218.5 -90.5t90.5 -218.5q0 -127 -91 -217.5t-218 -90.5t-217.5 90.5t-90.5 217.5z" />
<glyph unicode="&#x2026;" horiz-adv-x="1397" d="M126 108q0 53 38 91t91 38t90.5 -38t37.5 -91q0 -52 -37.5 -90t-90.5 -38t-91 37.5t-38 90.5zM562 108q0 53 38 91t91 38t90.5 -38t37.5 -91q0 -52 -37.5 -90t-90.5 -38t-91 37.5t-38 90.5zM998 108q0 53 38 91t91 38t90.5 -38t37.5 -91q0 -52 -37.5 -90t-90.5 -38 t-91 37.5t-38 90.5z" />
<glyph unicode="&#x202f;" horiz-adv-x="374" />
<glyph unicode="&#x2039;" horiz-adv-x="800" d="M113 557v8l344 388h196l-339 -387v-6l339 -389h-205z" />
<glyph unicode="&#x203a;" horiz-adv-x="800" d="M128 171l339 389v6l-339 387h196l344 -388v-8l-335 -386h-205z" />
<glyph unicode="&#x205f;" horiz-adv-x="467" />
<glyph unicode="&#x20ac;" d="M47 464v135h118v153h-118v135h122q17 254 134 380t345 126q97 0 175 -26.5t128.5 -71t84 -106.5t47.5 -129.5t14 -143.5h-201q0 297 -248 297q-134 0 -198.5 -77t-73.5 -249h333v-135h-337v-153h337v-135h-333q8 -171 71 -241t201 -70q75 0 125.5 21.5t76.5 62t36 86 t10 106.5h201q0 -69 -13 -132t-45.5 -123.5t-82.5 -104t-129.5 -70.5t-180.5 -27q-231 0 -346 118.5t-131 373.5h-122z" />
<glyph unicode="&#x2122;" horiz-adv-x="1505" d="M60 1257v108h530v-108h-203v-469h-126v469h-201zM723 788v577h141l183 -382h7l183 382h140v-577h-117v382h-9l-157 -333h-87l-158 333h-8v-382h-118z" />
<glyph unicode="&#x25fc;" horiz-adv-x="1055" d="M0 0v1055h1055v-1055h-1055z" />
<glyph unicode="&#xfb01;" horiz-adv-x="1209" d="M72 890v164h145v105q0 154 80 225t250 71q53 0 89 -6v-156q-30 4 -57 4q-86 0 -124.5 -34t-38.5 -120v-89h206v-164h-204v-890h-201v890h-145zM829 1311q0 51 36 85t87 34t87 -34t36 -85t-36 -85t-87 -34t-87 34t-36 85zM851 0v1054h202v-1054h-202z" />
<glyph unicode="&#xfb02;" horiz-adv-x="1202" d="M72 890v164h145v105q0 154 80 225t250 71q53 0 89 -6v-156q-30 4 -57 4q-86 0 -124.5 -34t-38.5 -120v-89h206v-164h-204v-890h-201v890h-145zM848 0v1437h201v-1437h-201z" />
</font>
</defs>
</svg>
